×

¿Problemas para descargar con Mozilla, EDGE? Deshabilita la opción "Abrir vinculos en una pestaña nueva" tal como lo muestra ésta imagen.

SOS: Mar de Sombras (2019) WEB-DL 1080p Latino

326 vistas

Información de SOS: Mar de Sombras (2019) WEB-DL 1080p Latino

Datos de la película

  • Calidad: WEBDL
  • Audio: Español Latino AC3 2.0 - Ingles AC3 2.0
  • Subtitulos: Español Latino SRT
  • Resolución: 1920x1080
  • Formato: MKV
  • Codec: H.264
  • Encoder: cinemaniahdd
  • Mediainfo: Clic para Mostrar Datos Ver
  • SOS, Mar de Sombras (2019) WEB-DL 1080p Latino [CNMNHDD].mkv
    Format                      : Matroska
    Format version              : Version 4
    File size                   : 3.75 GiB
    Duration                    : 1 h 42 min
    Overall bit rate            : 5 229 kb/s
    Movie name                  : SOS, Mar de Sombras - CinemaniaHDD.Net
    Encoded date                : UTC 2020-05-31 04:01:24
    Writing application         : mkvmerge v46.0.0 ('No Deeper Escape') 64-bit
    Writing library             : libebml v1.3.10 + libmatroska v1.5.2

    Video
    ID                          : 1
    Format                      : AVC
    Format/Info                 : Advanced Video Codec
    Format profile              : High@L4
    Format settings             : CABAC / 2 Ref Frames
    Format settings, CABAC      : Yes
    Format settings, Reference  : 2 frames
    Codec ID                    : V_MPEG4/ISO/AVC
    Duration                    : 1 h 42 min
    Bit rate                    : 5 000 kb/s
    Width                       : 1 920 pixels
    Height                      : 1 080 pixels
    Display aspect ratio        : 16:9
    Frame rate mode             : Constant
    Frame rate                  : 29.970 (30000/1001) FPS
    Color space                 : YUV
    Chroma subsampling          : 4:2:0
    Bit depth                   : 8 bits
    Scan type                   : Progressive
    Bits/(Pixel*Frame)          : 0.080
    Stream size                 : 3.57 GiB (95%)
    Title                       : CinemaniaHDD
    Writing library             : x264 core 148 r2579M 73ae2d1
    Encoding settings           : cabac=1 / ref=2 / deblock=1:0:0 / analyse=0x3:0x113 / me=hex / subme=2 / psy=1 / psy_rd=1.00:0.00 / mixed_ref=0 / me_range=16 / chroma_me=1 / trellis=0 / 8x8dct=1 / cqm=0 / deadzone=21,11 / fast_pskip=1 / chroma_qp_offset=0 / threads=4 / lookahead_threads=1 / sliced_threads=0 / nr=250 / decimate=1 / interlaced=0 / bluray_compat=0 / stitchable=1 / constrained_intra=0 / bframes=0 / weightp=1 / keyint=250 / keyint_min=25 / scenecut=40 / intra_refresh=0 / rc_lookahead=10 / rc=2pass / mbtree=1 / bitrate=5000 / ratetol=1.0 / qcomp=0.60 / qpmin=5 / qpmax=69 / qpstep=4 / cplxblur=20.0 / qblur=0.5 / vbv_maxrate=10000 / vbv_bufsize=5000 / nal_hrd=none / filler=0 / ip_ratio=1.40 / aq=1:1.00
    Language                    : Spanish
    Default                     : Yes
    Forced                      : No
    Color range                 : Limited
    Color primaries             : BT.709
    Transfer characteristics    : BT.709
    Matrix coefficients         : BT.709

    Audio #1
    ID                          : 2
    Format                      : AAC LC SBR
    Format/Info                 : Advanced Audio Codec Low Complexity with Spectral Band Replication
    Commercial name             : HE-AAC
    Format settings             : Explicit
    Codec ID                    : A_AAC-2
    Duration                    : 1 h 42 min
    Bit rate                    : 127 kb/s
    Channel(s)                  : 2 channels
    Channel layout              : L R
    Sampling rate               : 48.0 kHz
    Frame rate                  : 23.438 FPS (2048 SPF)
    Compression mode            : Lossy
    Stream size                 : 93.1 MiB (2%)
    Title                       : Español latino [CinemaniaHDD]
    Language                    : Spanish
    Default                     : Yes
    Forced                      : No

    Audio #2
    ID                          : 3
    Format                      : AAC LC SBR
    Format/Info                 : Advanced Audio Codec Low Complexity with Spectral Band Replication
    Commercial name             : HE-AAC
    Format settings             : Explicit
    Codec ID                    : A_AAC-2
    Duration                    : 1 h 42 min
    Bit rate                    : 127 kb/s
    Channel(s)                  : 2 channels
    Channel layout              : L R
    Sampling rate               : 48.0 kHz
    Frame rate                  : 23.438 FPS (2048 SPF)
    Compression mode            : Lossy
    Stream size                 : 93.1 MiB (2%)
    Title                       : Inglés [CinemaniaHDD]
    Language                    : English
    Default                     : No
    Forced                      : No

    Text
    ID                          : 4
    Format                      : UTF-8
    Codec ID                    : S_TEXT/UTF8
    Codec ID/Info               : UTF-8 Plain Text
    Duration                    : 1 h 40 min
    Bit rate                    : 50 b/s
    Count of elements           : 1189
    Stream size                 : 37.1 KiB (0%)
    Title                       : Español latino [CinemaniaHDD]
    Language                    : Spanish
    Default                     : No
    Forced                      : No

     

  • Peso: 3.75 GiB

Sinopsis

Un inminente desastre en uno de los ambientes más espectaculares de la Tierra. La caza furtiva en el Mar de Cortés amenaza con acabar con la población de vaquita marina y con toda la fauna marina de la región. Un equipo de científicos, ecologistas, periodistas, agentes y la Marina mexicana, arriesgan sus vidas para salvar a la vaquita y exigir justicia para los culpables

Ficha técnica

Video trailer de la película

Enlaces de descarga

Rip de Bluray

Descargar SOS: Mar de Sombras (2019) WEB-DL 1080p Latino




Aportes de DPeliculasHDmega la pass es:dpeliculashdmega.org Aportes de CinemaniaHD la pass es:cinemaniahdd.com
Guardado en : Documental

Películas relacionadas

  • WWE Evil (2022) Primera Temporada PCOK WEB-DL 1080p Latino

    WWE Evil (2022) Primera Temporada PCOK WEB-DL 1080p Latino

    2022
    WWE Evil (2022) Primera Temporada PCOK WEB-DL 1080p Latino

    0h 45m 2022

    Una "exposición psicológica" de las mentes de los antagonistas más diabólicos en la historia de la...

    Director: John Cena 約翰·希南 江西男,趙喜娜

    Género: Documental

    Actores: John Cena

  • Audrey (2020) HD 1080p Latino

    Audrey (2020) HD 1080p Latino

    2020
    Audrey (2020) HD 1080p Latino

    1h 30m 2020

    Descargar Audrey (2020) HD 1080p Latino. Documental sobre la icónica actriz Audrey Hepburn, una de las...

    Director: Helena Coan

    Género: Documental

    Actores: Sean Hepburn Ferrer

  • Audrey (2020) PLACEBO Full HD 1080p Latino

    Audrey (2020) PLACEBO Full HD 1080p Latino

    2020
    Audrey (2020) PLACEBO Full HD 1080p Latino

    1h 30m 2020

    Descargar Audrey (2020) PLACEBO Full HD 1080p Latino. Documental sobre la icónica actriz Audrey Hepburn,...

    Director: Helena Coan

    Género: Documental

    Actores: Sean Hepburn Ferrer

descargar SOS: Mar de Sombras (2019) WEB-DL 1080p Latino WEBDL 1080p gratis, SOS: Mar de Sombras (2019) WEB-DL 1080p Latino WEBDL mega 1 link, SOS: Mar de Sombras (2019) WEB-DL 1080p Latino WEBDL pelicula completa, descargar SOS: Mar de Sombras (2019) WEB-DL 1080p Latino WEBDL gratis en mega.

SOS: Mar de Sombras (2019) WEB-DL 1080p Latino pelicula full hd, SOS: Mar de Sombras (2019) WEB-DL 1080p Latino mega latino, SOS: Mar de Sombras (2019) WEB-DL 1080p Latino 4k latino, SOS: Mar de Sombras (2019) WEB-DL 1080p Latino pelicula completa, SOS: Mar de Sombras (2019) WEB-DL 1080p Latino descargar gratis, descargar SOS: Mar de Sombras (2019) WEB-DL 1080p Latino pelicula latino, SOS: Mar de Sombras (2019) WEB-DL 1080p Latino 1 link mega, SOS: Mar de Sombras (2019) WEB-DL 1080p Latino 1 link google drive, SOS: Mar de Sombras (2019) WEB-DL 1080p Latino hd 1080p latino.
Comentarios 1
  • eduardo - 03 junio, 2020

    gracias por subir estos documentales. seguro muchos quiern es ver malas peliculas de esas modernas… pero esto es material de calidad. gracias por siempre subir documentales buenos