×

¿Problemas para descargar con Mozilla, EDGE? Deshabilita la opción "Abrir vinculos en una pestaña nueva" tal como lo muestra ésta imagen.

Sorry to Bother You (2018) 1080p Latino

946 vistas

Información de Sorry to Bother You (2018) 1080p Latino

sorry to bother you 54447 poster

Datos de la película

  • Calidad: 1080p
  • Audio: Español Latino AC3 2.0 DVD - Ingles AC3 5.1 BLURAY
  • Subtitulos: Español Latino SRT- FORZADOS SRT
  • Resolución: 1920x802
  • Formato: MKV
  • Codec: H.264
  • Encoder: Chesse92
  • Mediainfo: Clic para Mostrar Datos Ver
  • Sorry To Bother You (2018) 1080p Latino.mkv
    Format                      : Matroska
    Format version              : Version 4
    File size                   : 3.22 GiB
    Duration                    : 1 h 50 min
    Overall bit rate            : 4 166 kb/s
    Movie name                  : Sorry To Bother You (2018) - CinemaniaHDD.Net
    Encoded date                : UTC 2019-06-26 14:42:53
    Writing application         : mkvmerge v22.0.0 ('At The End Of The World') 64-bit
    Writing library             : libebml v1.3.5 + libmatroska v1.4.8

    Video
    ID                          : 1
    Format                      : AVC
    Format/Info                 : Advanced Video Codec
    Format profile              : High@L4.1
    Format settings             : CABAC / 5 Ref Frames
    Format settings, CABAC      : Yes
    Format settings, ReFrames   : 5 frames
    Codec ID                    : V_MPEG4/ISO/AVC
    Duration                    : 1 h 50 min
    Bit rate                    : 3 500 kb/s
    Width                       : 1 920 pixels
    Height                      : 808 pixels
    Display aspect ratio        : 2.40:1
    Frame rate mode             : Constant
    Frame rate                  : 23.976 (24000/1001) FPS
    Color space                 : YUV
    Chroma subsampling          : 4:2:0
    Bit depth                   : 8 bits
    Scan type                   : Progressive
    Bits/(Pixel*Frame)          : 0.094
    Stream size                 : 2.68 GiB (83%)
    Title                       : CinemaniaHDD
    Writing library             : x264 core 157 r2935 545de2f
    Encoding settings           : cabac=1 / ref=5 / deblock=1:0:0 / analyse=0x3:0x113 / me=hex / subme=8 / psy=1 / psy_rd=1.00:0.00 / mixed_ref=1 / me_range=16 / chroma_me=1 / trellis=2 / 8x8dct=1 / cqm=0 / deadzone=21,11 / fast_pskip=1 / chroma_qp_offset=-2 / threads=25 / lookahead_threads=4 / sliced_threads=0 / nr=0 / decimate=1 / interlaced=0 / bluray_compat=0 / constrained_intra=0 / bframes=3 / b_pyramid=2 / b_adapt=1 / b_bias=0 / direct=3 / weightb=1 / open_gop=0 / weightp=2 / keyint=240 / keyint_min=24 / scenecut=40 / intra_refresh=0 / rc_lookahead=50 / rc=abr / mbtree=1 / bitrate=3500 / ratetol=1.0 / qcomp=0.60 / qpmin=0 / qpmax=69 / qpstep=4 / vbv_maxrate=62500 / vbv_bufsize=78125 / nal_hrd=none / filler=0 / ip_ratio=1.40 / aq=1:1.00
    Default                     : Yes
    Forced                      : No
    Color range                 : Limited
    Color primaries             : BT.709
    Transfer characteristics    : BT.709
    Matrix coefficients         : BT.709

    Audio #1
    ID                          : 2
    Format                      : AC-3
    Format/Info                 : Audio Coding 3
    Commercial name             : Dolby Digital
    Codec ID                    : A_AC3
    Duration                    : 1 h 50 min
    Bit rate mode               : Constant
    Bit rate                    : 256 kb/s
    Channel(s)                  : 2 channels
    Channel layout              : L R
    Sampling rate               : 48.0 kHz
    Frame rate                  : 31.250 FPS (1536 SPF)
    Bit depth                   : 16 bits
    Compression mode            : Lossy
    Delay relative to video     : -5 ms
    Stream size                 : 203 MiB (6%)
    Title                       : Español latino [CinemaniaHDD]
    Language                    : Spanish
    Service kind                : Complete Main
    Default                     : Yes
    Forced                      : No

    Audio #2
    ID                          : 3
    Format                      : AC-3
    Format/Info                 : Audio Coding 3
    Commercial name             : Dolby Digital
    Codec ID                    : A_AC3
    Duration                    : 1 h 50 min
    Bit rate mode               : Constant
    Bit rate                    : 448 kb/s
    Channel(s)                  : 6 channels
    Channel layout              : L R C LFE Ls Rs
    Sampling rate               : 48.0 kHz
    Frame rate                  : 31.250 FPS (1536 SPF)
    Bit depth                   : 16 bits
    Compression mode            : Lossy
    Delay relative to video     : -5 ms
    Stream size                 : 355 MiB (11%)
    Title                       : Inglés [CinemaniaHDD]
    Language                    : English
    Service kind                : Complete Main
    Default                     : No
    Forced                      : No

    Text #1
    ID                          : 4
    Format                      : UTF-8
    Codec ID                    : S_TEXT/UTF8
    Codec ID/Info               : UTF-8 Plain Text
    Duration                    : 1 h 49 min
    Bit rate                    : 1 b/s
    Count of elements           : 35
    Stream size                 : 1.08 KiB (0%)
    Title                       : Forzados [CinemaniaHDD]
    Language                    : Spanish
    Default                     : Yes
    Forced                      : Yes

    Text #2
    ID                          : 5
    Format                      : UTF-8
    Codec ID                    : S_TEXT/UTF8
    Codec ID/Info               : UTF-8 Plain Text
    Duration                    : 1 h 49 min
    Bit rate                    : 74 b/s
    Count of elements           : 1643
    Stream size                 : 59.6 KiB (0%)
    Title                       : Español latino [CinemaniaHDD]
    Language                    : Spanish
    Default                     : No
    Forced                      : No

    Menu
    00:00:00.000                : :00:00:00.000
    00:03:35.340                : :00:03:35.340
    00:07:31.493                : :00:07:31.493
    00:13:04.325                : :00:13:04.325
    00:18:54.800                : :00:18:54.800
    00:26:37.638                : :00:26:37.638
    00:32:27.946                : :00:32:27.946
    00:37:08.268                : :00:37:08.268
    00:40:08.615                : :00:40:08.615
    00:43:46.374                : :00:43:46.374
    00:46:59.191                : :00:46:59.191
    00:49:18.831                : :00:49:18.831
    00:52:30.939                : :00:52:30.939
    00:57:29.780                : :00:57:29.780
    01:00:18.490                : :01:00:18.490
    01:05:14.202                : :01:05:14.202
    01:07:52.485                : :01:07:52.485
    01:13:48.299                : :01:13:48.299
    01:17:13.129                : :01:17:13.128
    01:21:46.902                : :01:21:46.902
    01:27:03.343                : :01:27:03.343
    01:31:37.409                : :01:31:37.409
    01:38:49.132                : :01:38:49.132
    01:44:59.752                : :01:44:59.752

  • Peso: 3.22 GiB

Sinopsis

Un vendedor telefónico con problemas de autoestima descubre la clave para el éxito en el negocio. Pero cuando empieza a subir escalones en la compañía, sus amigos activistas denuncian prácticas laborales injustas.

Ficha técnica

Video trailer de la película

Enlaces de descarga

Rip de Bluray

Descargar Sorry to Bother You (2018) 1080p Latino




Aportes de DPeliculasHDmega la pass es:dpeliculashdmega.org Aportes de CinemaniaHD la pass es:cinemaniahdd.com Aportes recientes:cinemaniahdd.net

Películas relacionadas

descargar Sorry to Bother You (2018) 1080p Latino 1080p 1080p gratis, Sorry to Bother You (2018) 1080p Latino 1080p mega 1 link, Sorry to Bother You (2018) 1080p Latino 1080p pelicula completa, descargar Sorry to Bother You (2018) 1080p Latino 1080p gratis en mega.

Sorry to Bother You (2018) 1080p Latino pelicula full hd, Sorry to Bother You (2018) 1080p Latino mega latino, Sorry to Bother You (2018) 1080p Latino 4k latino, Sorry to Bother You (2018) 1080p Latino pelicula completa, Sorry to Bother You (2018) 1080p Latino descargar gratis, descargar Sorry to Bother You (2018) 1080p Latino pelicula latino, Sorry to Bother You (2018) 1080p Latino 1 link mega, Sorry to Bother You (2018) 1080p Latino 1 link google drive, Sorry to Bother You (2018) 1080p Latino hd 1080p latino.
Comentarios 0