Sorjonen (2019) Temporada 2 NF 1080p WEB-DL Latino

435 vistas
1 estrella2 estrellas3 estrellas4 estrellas5 estrellas (Ninguna valoración todavía)
Cargando…

Información de Sorjonen (2019) Temporada 2 NF 1080p WEB-DL Latino

Datos de la película

  • Calidad: WEBDL
  • Audio: Español Latino AC3 5.1 Netflix - Ingles AC3 5.1 Netflix
  • Subtitulos: Español Latino SRT- FORZADOS SRT
  • Resolución: 1920x1080
  • Formato: MKV
  • Codec: H.264
  • Encoder: cinemaniahdd
  • Mediainfo: Clic para Mostrar Datos Ver
  • Sorjonen S02E01 NF 1080p WEB-DL Latino.mkv
    Format                      : Matroska
    Format version              : Version 4
    File size                   : 1.62 GiB
    Duration                    : 59 min 44 s
    Overall bit rate mode       : Variable
    Overall bit rate            : 3 890 kb/s
    Movie name                  : Sorjonen S02E01
    Encoded date                : UTC 2019-02-12 03:45:43 / UTC 2019-01-29 18:47:21
    Writing application         : mkvmerge v11.0.0 ('Alive') 64bit
    Writing library             : libebml v1.3.4 + libmatroska v1.4.5 / Lavf58.0.0

    Video
    ID                          : 1
    Format                      : AVC
    Format/Info                 : Advanced Video Codec
    Format profile              : [email protected]
    Format settings             : CABAC / 3 Ref Frames
    Format settings, CABAC      : Yes
    Format settings, ReFrames   : 3 frames
    Codec ID                    : V_MPEG4/ISO/AVC
    Duration                    : 59 min 44 s
    Bit rate mode               : Variable
    Bit rate                    : 3 650 kb/s
    Maximum bit rate            : 5 475 kb/s
    Width                       : 1 920 pixels
    Height                      : 1 080 pixels
    Display aspect ratio        : 16:9
    Frame rate mode             : Constant
    Frame rate                  : 25.000 FPS
    Color space                 : YUV
    Chroma subsampling          : 4:2:0
    Bit depth                   : 8 bits
    Scan type                   : Progressive
    Bits/(Pixel*Frame)          : 0.070
    Stream size                 : 1.48 GiB (91%)
    Title                       : CinemaniaHDD
    Writing library             : x264 core 148 r2715 7e75228
    Encoding settings           : cabac=1 / ref=3 / deblock=1:0:0 / analyse=0x1:0x111 / me=umh / subme=10 / psy=1 / psy_rd=1.00:0.00 / mixed_ref=1 / me_range=24 / chroma_me=1 / trellis=2 / 8x8dct=0 / cqm=0 / deadzone=21,11 / fast_pskip=1 / chroma_qp_offset=-2 / threads=8 / lookahead_threads=1 / sliced_threads=0 / nr=0 / decimate=1 / interlaced=0 / bluray_compat=0 / stitchable=1 / constrained_intra=0 / bframes=2 / b_pyramid=0 / b_adapt=2 / b_bias=0 / direct=3 / weightb=1 / open_gop=0 / weightp=2 / keyint=50 / keyint_min=26 / scenecut=0 / intra_refresh=0 / rc_lookahead=50 / rc=2pass / mbtree=1 / bitrate=3650 / ratetol=1.0 / qcomp=0.50 / qpmin=6 / qpmax=51 / qpstep=4 / cplxblur=20.0 / qblur=0.5 / vbv_maxrate=5475 / vbv_bufsize=7300 / nal_hrd=vbr / filler=0 / ip_ratio=1.40 / aq=1:1.00
    Default                     : Yes
    Forced                      : No
    Statistics Tags Issue       : mkvmerge v11.0.0 ('Alive') 64bit 2019-02-12 03:45:43 / mkvmerge v11.0.0 ('Alive') 64bit 2019-02-12 03:45:43 / UTC 2019-01-29 18:47:21
    FromStats_BitRate           : 3632156
    FromStats_Duration          : 00:59:44.160000000
    FromStats_FrameCount        : 89604
    FromStats_StreamSize        : 1627278753

    Audio #1
    ID                          : 2
    Format                      : E-AC-3
    Format/Info                 : Enhanced AC-3
    Commercial name             : Dolby Digital Plus
    Codec ID                    : A_EAC3
    Duration                    : 59 min 44 s
    Bit rate mode               : Constant
    Bit rate                    : 128 kb/s
    Channel(s)                  : 2 channels
    Channel layout              : L R
    Sampling rate               : 48.0 kHz
    Frame rate                  : 31.250 FPS (1536 SPF)
    Compression mode            : Lossy
    Stream size                 : 54.7 MiB (3%)
    Title                       : Español latino [CinemaniaHDD]
    Language                    : Spanish
    Service kind                : Complete Main
    Default                     : Yes
    Forced                      : No
    Encoded date                : UTC 2019-01-29 18:47:21
    Statistics Tags Issue       : mkvmerge v11.0.0 ('Alive') 64bit 2019-02-12 03:45:43 / mkvmerge v11.0.0 ('Alive') 64bit 2019-02-12 03:45:43 / UTC 2019-01-29 18:47:21
    FromStats_BitRate           : 128000
    FromStats_Duration          : 00:59:44.288000000
    FromStats_FrameCount        : 112009
    FromStats_StreamSize        : 57348608

    Audio #2
    ID                          : 3
    Format                      : E-AC-3
    Format/Info                 : Enhanced AC-3
    Commercial name             : Dolby Digital Plus
    Codec ID                    : A_EAC3
    Duration                    : 59 min 44 s
    Bit rate mode               : Constant
    Bit rate                    : 128 kb/s
    Channel(s)                  : 2 channels
    Channel layout              : L R
    Sampling rate               : 48.0 kHz
    Frame rate                  : 31.250 FPS (1536 SPF)
    Compression mode            : Lossy
    Stream size                 : 54.7 MiB (3%)
    Title                       : Inglés [CinemaniaHDD]
    Language                    : English
    Service kind                : Complete Main
    Default                     : No
    Forced                      : No
    Encoded date                : UTC 2019-01-29 18:47:21
    Statistics Tags Issue       : mkvmerge v11.0.0 ('Alive') 64bit 2019-02-12 03:45:43 / mkvmerge v11.0.0 ('Alive') 64bit 2019-02-12 03:45:43 / UTC 2019-01-29 18:47:21
    FromStats_BitRate           : 128000
    FromStats_Duration          : 00:59:44.288000000
    FromStats_FrameCount        : 112009
    FromStats_StreamSize        : 57348608

    Text #1
    ID                          : 4
    Format                      : UTF-8
    Codec ID                    : S_TEXT/UTF8
    Codec ID/Info               : UTF-8 Plain Text
    Title                       : Español latino [CinemaniaHDD]
    Language                    : Spanish
    Default                     : No
    Forced                      : No
    Statistics Tags Issue       : mkvmerge v11.0.0 ('Alive') 64bit 2019-02-12 03:45:43 / mkvmerge v11.0.0 ('Alive') 64bit 2019-02-12 03:45:43 / UTC 2019-01-29 18:47:21
    FromStats_BitRate           : 43
    FromStats_Duration          : 00:58:28.480000000
    FromStats_FrameCount        : 545
    FromStats_StreamSize        : 18902

    Text #2
    ID                          : 5
    Format                      : UTF-8
    Codec ID                    : S_TEXT/UTF8
    Codec ID/Info               : UTF-8 Plain Text
    Title                       : Forzados [CinemaniaHDD]
    Language                    : Spanish
    Default                     : Yes
    Forced                      : Yes
    Statistics Tags Issue       : mkvmerge v11.0.0 ('Alive') 64bit 2019-02-12 03:45:43 / mkvmerge v11.0.0 ('Alive') 64bit 2019-02-12 03:45:43 / UTC 2019-01-29 18:47:21
    FromStats_BitRate           : 7
    FromStats_Duration          : 00:59:16.040000000
    FromStats_FrameCount        : 108
    FromStats_StreamSize        : 3135

  • Peso: 1.62 GiB Aprox...

Sinopsis

Serie de TV (2016). 11 episodios. Un extravagante detective de policía resuelve crímenes despreciables mientras intenta mantener unida a su familia.

Ficha técnica

  • Titulo original: Sorjonen
  • Fecha de lanzamiento: 16-10-2016 (FI)
  • Director: Miikko Oikkonen
  • Género: Crimen
  • Puntuación: 0.0 0 votos
  • Duración:
    1h 0m

Video trailer de la película

Enlaces de descarga

Rip de Bluray

Descargar Sorjonen (2019) Temporada 2 NF 1080p WEB-DL Latino




Aportes de DPeliculasHDmega la pass es:dpeliculashdmega.org Aportes de CinemaniaHD la pass es:cinemaniahdd.com
Guardado en : Crimen

Películas relacionadas

  • Man On A Ledge (2012) REMUX (Open Matte) 1080P Latino

    2012
    Man On A Ledge (2012) REMUX (Open Matte) 1080P Latino

    0.0 1h 42m 2012

    Nick Cassidy (Sam Worthington), un antiguo agente de policía, se escapa de la cárcel y se dirige al...

    Director: Melissa Kalbfus

    Género: Acción

    Actores: William Sadler

  • Los Despiadados (2019) NF 1080p Latino

    2019
    Los Despiadados (2019) NF 1080p Latino

    0.0 1h 51m 2019

    Un adolescente rebelde acaba convirtiéndose en uno de los mafiosos más ambiciosos de Milán durante...

    Director: Renato De Maria

    Género: Crimen

    Actores: Valentine Payen

  • Man On A Ledge (2012) Full (Open Matte) 1080P Latino

    2012
    Man On A Ledge (2012) Full (Open Matte) 1080P Latino

    5.0 1h 42m 2012

    Nick Cassidy (Sam Worthington), un antiguo agente de policía, se escapa de la cárcel y se dirige al...

    Director: Melissa Kalbfus

    Género: Acción

    Actores: William Sadler

Comentarios 0