×

¿Problemas para descargar con Mozilla, EDGE? Deshabilita la opción "Abrir vinculos en una pestaña nueva" tal como lo muestra ésta imagen.

Sorcerer (1977) REMUX 1080p Latino – CMHDD

174 vistas

Información de Sorcerer (1977) REMUX 1080p Latino – CMHDD

Datos de la película

  • Calidad: Full 1080p
  • Audio: Español Latino AC3 2.0
  • Subtitulos: Español Latino PGS
  • Resolución: 1920x1080p
  • Formato: MKV
  • Codec: H.264
  • Encoder: Dracarys
  • Mediainfo: Clic para Mostrar Datos Ver
  • Format                      : Matroska
    Format version              : Version 4
    File size                   : 18.7 GiB
    Duration                    : 2 h 1 min
    Overall bit rate mode       : Variable
    Overall bit rate            : 22.1 Mb/s
    Movie name                  : Sorcerer (1977) REMUX 1080p Latino - CMHDD
    Encoded date                : UTC 2023-08-24 01:51:22
    Writing application         : mkvmerge v47.0.0 ('Black Flag') 64-bit
    Writing library             : libebml v1.3.10 + libmatroska v1.5.2
    Cover                       : Yes
    Attachments                 : cover.jpg

    Video
    ID                          : 1
    ID in the original source m : 4113 (0x1011)
    Format                      : AVC
    Format/Info                 : Advanced Video Codec
    Format profile              : High@L4.1
    Format settings             : CABAC / 2 Ref Frames
    Format settings, CABAC      : Yes
    Format settings, Reference  : 2 frames
    Format settings, GOP        : M=1, N=10
    Codec ID                    : V_MPEG4/ISO/AVC
    Duration                    : 2 h 1 min
    Bit rate mode               : Variable
    Bit rate                    : 18.0 Mb/s
    Width                       : 1 920 pixels
    Height                      : 1 080 pixels
    Display aspect ratio        : 16:9
    Frame rate mode             : Constant
    Frame rate                  : 23.976 (24000/1001) FPS
    Color space                 : YUV
    Chroma subsampling          : 4:2:0
    Bit depth                   : 8 bits
    Scan type                   : Progressive
    Bits/(Pixel*Frame)          : 0.362
    Stream size                 : 15.3 GiB (82%)
    Default                     : Yes
    Forced                      : No
    Original source medium      : Blu-ray

    Audio #1
    ID                          : 2
    ID in the original source m : 4352 (0x1100)
    Format                      : DTS XLL
    Format/Info                 : Digital Theater Systems
    Commercial name             : DTS-HD Master Audio
    Codec ID                    : A_DTS
    Duration                    : 2 h 1 min
    Bit rate mode               : Variable
    Bit rate                    : 3 824 kb/s
    Channel(s)                  : 6 channels
    Channel layout              : C L R Ls Rs LFE
    Sampling rate               : 48.0 kHz
    Frame rate                  : 93.750 FPS (512 SPF)
    Bit depth                   : 24 bits
    Compression mode            : Lossless
    Stream size                 : 3.25 GiB (17%)
    Language                    : English
    Default                     : No
    Forced                      : No
    Original source medium      : Blu-ray

    Audio #2
    ID                          : 3
    ID in the original source m : 4353 (0x1101)
    Format                      : AC-3
    Format/Info                 : Audio Coding 3
    Commercial name             : Dolby Digital
    Codec ID                    : A_AC3
    Duration                    : 2 h 1 min
    Bit rate mode               : Constant
    Bit rate                    : 224 kb/s
    Channel(s)                  : 2 channels
    Channel layout              : L R
    Sampling rate               : 48.0 kHz
    Frame rate                  : 31.250 FPS (1536 SPF)
    Compression mode            : Lossy
    Stream size                 : 195 MiB (1%)
    Language                    : Spanish
    Service kind                : Complete Main
    Default                     : Yes
    Forced                      : No
    Original source medium      : Blu-ray

    Text
    ID                          : 4
    ID in the original source m : 4610 (0x1202)
    Format                      : PGS
    Muxing mode                 : zlib
    Codec ID                    : S_HDMV/PGS
    Codec ID/Info               : Picture based subtitle format used on BDs/HD-DVDs
    Duration                    : 1 h 59 min
    Bit rate                    : 9 612 b/s
    Frame rate                  : 0.146 FPS
    Count of elements           : 1048
    Stream size                 : 8.25 MiB (0%)
    Language                    : Spanish
    Default                     : No
    Forced                      : No
    Original source medium      : Blu-ray

    Menu
    00:00:00.000                : en:Capítulo 01
    00:01:29.798                : en:Capítulo 02
    00:06:37.480                : en:Capítulo 03
    00:16:12.930                : en:Capítulo 04
    00:24:14.077                : en:Capítulo 05
    00:40:14.370                : en:Capítulo 06
    00:47:30.430                : en:Capítulo 07
    00:52:00.992                : en:Capítulo 08
    00:55:00.380                : en:Capítulo 09
    01:03:27.094                : en:Capítulo 10
    01:08:41.951                : en:Capítulo 11
    01:15:46.833                : en:Capítulo 12
    01:26:33.688                : en:Capítulo 13
    01:41:17.988                : en:Capítulo 14
    01:43:30.120                : en:Capítulo 15
    01:47:16.138                : en:Capítulo 16
    01:54:05.922                : en:Capítulo 17
    01:58:32.105                : en:Capítulo 18

  • Peso: 18.7 GiB

Sinopsis

Cuatro hombres de diferente nacionalidad, escondidos de su pasado en una remota ciudad sudamericana, se unen para transportar una peligrosa carga de dinamita a través de la selva. Remake de «El salario del miedo», de Clouzot (1953).

Ficha técnica

Video trailer de la película

Enlaces de descarga

Rip de Bluray

Descargar Sorcerer (1977) REMUX 1080p Latino – CMHDD


Aportes de DPeliculasHDmega la pass es:dpeliculashdmega.org Aportes de CinemaniaHD la pass es:cinemaniahdd.com Aportes recientes:cinemaniahdd.net
Guardado en : Aventura , Suspenso

Películas relacionadas

descargar Sorcerer (1977) REMUX 1080p Latino – CMHDD Full 1080p 1080p gratis, Sorcerer (1977) REMUX 1080p Latino – CMHDD Full 1080p mega 1 link, Sorcerer (1977) REMUX 1080p Latino – CMHDD Full 1080p pelicula completa, descargar Sorcerer (1977) REMUX 1080p Latino – CMHDD Full 1080p gratis en mega.

Sorcerer (1977) REMUX 1080p Latino – CMHDD pelicula full hd, Sorcerer (1977) REMUX 1080p Latino – CMHDD mega latino, Sorcerer (1977) REMUX 1080p Latino – CMHDD 4k latino, Sorcerer (1977) REMUX 1080p Latino – CMHDD pelicula completa, Sorcerer (1977) REMUX 1080p Latino – CMHDD descargar gratis, descargar Sorcerer (1977) REMUX 1080p Latino – CMHDD pelicula latino, Sorcerer (1977) REMUX 1080p Latino – CMHDD 1 link mega, Sorcerer (1977) REMUX 1080p Latino – CMHDD 1 link google drive, Sorcerer (1977) REMUX 1080p Latino – CMHDD hd 1080p latino.
Comentarios 0