×

¿Problemas para descargar con Mozilla, EDGE? Deshabilita la opción "Abrir vinculos en una pestaña nueva" tal como lo muestra ésta imagen.

Sonido De Libertad (2023) WEB-DL 1080p Latino

161 vistas

Información de Sonido De Libertad (2023) WEB-DL 1080p Latino

Datos de la película

  • Calidad: WEBDL
  • Audio: Español Latino AC3 2.0 WEB-DL - Ingles AC3 5.1 WEB-DL
  • Subtitulos: Español Latino SRT- FORZADOS SRT
  • Resolución: 1920x804p
  • Formato: MKV
  • Codec: H.264
  • Encoder: Melkor
  • Mediainfo: Clic para Mostrar Datos Ver
  • Sonidos De Libertad (2023) WEB 1080p Latino.mkv
    Format                      : Matroska
    Format version              : Version 4
    File size                   : 6.66 GiB
    Duration                    : 2 h 10 min
    Overall bit rate            : 7 277 kb/s
    Movie name                  : Sound of Freedom (2023) CinemaniaHDD.Net
    Encoded date                : UTC 2023-11-03 07:03:02
    Writing application         : mkvmerge v56.1.0 ('My Friend') 64-bit
    Writing library             : libebml v1.4.2 + libmatroska v1.6.4
    Attachments                 : CINEMANIAHD.png
    Site                        : CinemaniaHDD.Net
    Uploader                    : Melkor

    Video
    ID                          : 1
    Format                      : AVC
    Format/Info                 : Advanced Video Codec
    Format profile              : High@L4
    Format settings             : CABAC / 5 Ref Frames
    Format settings, CABAC      : Yes
    Format settings, Reference  : 5 frames
    Codec ID                    : V_MPEG4/ISO/AVC
    Duration                    : 2 h 10 min
    Bit rate                    : 6 635 kb/s
    Width                       : 1 920 pixels
    Height                      : 804 pixels
    Display aspect ratio        : 2.40:1
    Frame rate mode             : Constant
    Frame rate                  : 24.000 FPS
    Color space                 : YUV
    Chroma subsampling          : 4:2:0
    Bit depth                   : 8 bits
    Scan type                   : Progressive
    Bits/(Pixel*Frame)          : 0.179
    Stream size                 : 6.07 GiB (91%)
    Title                       : Web HD1080p [CinemaniaHDD]
    Default                     : Yes
    Forced                      : Yes
    Color range                 : Limited
    Color primaries             : BT.709
    Transfer characteristics    : BT.709
    Matrix coefficients         : BT.709

    Audio #1
    ID                          : 2
    Format                      : AC-3
    Format/Info                 : Audio Coding 3
    Commercial name             : Dolby Digital
    Codec ID                    : A_AC3
    Duration                    : 2 h 10 min
    Bit rate mode               : Constant
    Bit rate                    : 256 kb/s
    Channel(s)                  : 2 channels
    Channel layout              : L R
    Sampling rate               : 48.0 kHz
    Frame rate                  : 31.250 FPS (1536 SPF)
    Compression mode            : Lossy
    Stream size                 : 240 MiB (4%)
    Title                       : Español Latino [CinemaniaHDD]
    Language                    : Spanish
    Service kind                : Complete Main
    Default                     : Yes
    Forced                      : Yes

    Audio #2
    ID                          : 3
    Format                      : AC-3
    Format/Info                 : Audio Coding 3
    Commercial name             : Dolby Digital
    Codec ID                    : A_AC3
    Duration                    : 2 h 10 min
    Bit rate mode               : Constant
    Bit rate                    : 384 kb/s
    Channel(s)                  : 6 channels
    Channel layout              : L R C LFE Ls Rs
    Sampling rate               : 48.0 kHz
    Frame rate                  : 31.250 FPS (1536 SPF)
    Compression mode            : Lossy
    Stream size                 : 360 MiB (5%)
    Title                       : Ingles [CinemaniaHDD]
    Language                    : English
    Service kind                : Complete Main
    Default                     : No
    Forced                      : No

    Text #1
    ID                          : 4
    Format                      : UTF-8
    Codec ID                    : S_TEXT/UTF8
    Codec ID/Info               : UTF-8 Plain Text
    Duration                    : 1 h 59 min
    Bit rate                    : 1 b/s
    Count of elements           : 50
    Stream size                 : 1.70 KiB (0%)
    Title                       : Forzados-SRT [CinemaniaHDD]
    Language                    : Spanish
    Default                     : Yes
    Forced                      : Yes

    Text #2
    ID                          : 5
    Format                      : UTF-8
    Codec ID                    : S_TEXT/UTF8
    Codec ID/Info               : UTF-8 Plain Text
    Duration                    : 1 h 59 min
    Bit rate                    : 27 b/s
    Count of elements           : 935
    Stream size                 : 24.4 KiB (0%)
    Title                       : Español-SRT [CinemaniaHDD]
    Language                    : Spanish
    Default                     : No
    Forced                      : No

    Text #3
    ID                          : 6
    Format                      : UTF-8
    Codec ID                    : S_TEXT/UTF8
    Codec ID/Info               : UTF-8 Plain Text
    Duration                    : 1 h 57 min
    Bit rate                    : 26 b/s
    Count of elements           : 949
    Stream size                 : 22.7 KiB (0%)
    Title                       : Ingles-SRT [CinemaniaHDD]
    Language                    : English
    Default                     : No
    Forced                      : No

    Menu
    00:00:00.000                : Chapter 01
    00:31:08.833                : Chapter 02
    01:21:01.625                : Chapter 03
    02:03:54.000                : Chapter 04

  • Peso: 6.66 GiB

Sinopsis

Descargar Sonido De Libertad (2023) WEB-DL 1080p Latino. Narra la historia de Tim Ballard, un exagente de Seguridad Nacional de Estados Unidos que dejó su trabajo para dedicar su vida, sumergiéndose en el submundo del tráfico de personas a lo largo de hispanoamérica, a intentar salvar las vidas de cientos de niños.

Ficha técnica

Video trailer de la película

Enlaces de descarga

Rip de Bluray

Descargar Sonido De Libertad (2023) WEB-DL 1080p Latino




Aportes de DPeliculasHDmega la pass es:dpeliculashdmega.org Aportes de CinemaniaHD la pass es:cinemaniahdd.com Aportes recientes:cinemaniahdd.net
Guardado en : Acción , Drama

Películas relacionadas

descargar Sonido De Libertad (2023) WEB-DL 1080p Latino WEBDL 1080p gratis, Sonido De Libertad (2023) WEB-DL 1080p Latino WEBDL mega 1 link, Sonido De Libertad (2023) WEB-DL 1080p Latino WEBDL pelicula completa, descargar Sonido De Libertad (2023) WEB-DL 1080p Latino WEBDL gratis en mega.

Sonido De Libertad (2023) WEB-DL 1080p Latino pelicula full hd, Sonido De Libertad (2023) WEB-DL 1080p Latino mega latino, Sonido De Libertad (2023) WEB-DL 1080p Latino 4k latino, Sonido De Libertad (2023) WEB-DL 1080p Latino pelicula completa, Sonido De Libertad (2023) WEB-DL 1080p Latino descargar gratis, descargar Sonido De Libertad (2023) WEB-DL 1080p Latino pelicula latino, Sonido De Libertad (2023) WEB-DL 1080p Latino 1 link mega, Sonido De Libertad (2023) WEB-DL 1080p Latino 1 link google drive, Sonido De Libertad (2023) WEB-DL 1080p Latino hd 1080p latino.
Comentarios 0