×

¿Problemas para descargar con Mozilla, EDGE? Deshabilita la opción "Abrir vinculos en una pestaña nueva" tal como lo muestra ésta imagen.

Sonido De Libertad (2023) REMUX 1080p Latino

240 vistas

Información de Sonido De Libertad (2023) REMUX 1080p Latino

Datos de la película

  • Calidad: Full 1080p
  • Audio: Español Latino AC3 5.1 BLURAY - Ingles AC3 5.1 BLURAY
  • Subtitulos: Español Latino PGS - Ingles PGS
  • Resolución: 1920x1080p
  • Formato: MKV
  • Codec: H.264
  • Encoder: Melkor
  • Mediainfo: Clic para Mostrar Datos Ver
  • Sonido De Libertad (2023) REMUX 1080p Latino.mkv
    Format                      : Matroska
    Format version              : Version 4
    File size                   : 23.5 GiB
    Duration                    : 2 h 11 min
    Overall bit rate mode       : Variable
    Overall bit rate            : 25.7 Mb/s
    Movie name                  : Sound of Freedom (2023) CinemaniaHDD.Net
    Encoded date                : UTC 2023-11-11 16:14:29
    Writing application         : mkvmerge v56.1.0 ('My Friend') 64-bit
    Writing library             : libebml v1.4.2 + libmatroska v1.6.4
    Cover                       : Yes
    Attachments                 : cover.jpg / CINEMANIAHD.png
    Site                        : CinemaniaHDD.Net
    Uploader                    : Melkor

    Video
    ID                          : 1
    ID in the original source m : 4113 (0x1011)
    Format                      : AVC
    Format/Info                 : Advanced Video Codec
    Format profile              : High@L4.1
    Format settings             : CABAC / 4 Ref Frames
    Format settings, CABAC      : Yes
    Format settings, Reference  : 4 frames
    Codec ID                    : V_MPEG4/ISO/AVC
    Duration                    : 2 h 11 min
    Bit rate mode               : Variable
    Bit rate                    : 24.7 Mb/s
    Maximum bit rate            : 35.0 Mb/s
    Width                       : 1 920 pixels
    Height                      : 1 080 pixels
    Display aspect ratio        : 16:9
    Frame rate mode             : Constant
    Frame rate                  : 23.976 (24000/1001) FPS
    Standard                    : NTSC
    Color space                 : YUV
    Chroma subsampling          : 4:2:0
    Bit depth                   : 8 bits
    Scan type                   : Progressive
    Bits/(Pixel*Frame)          : 0.498
    Stream size                 : 22.6 GiB (96%)
    Title                       : REMUX HD1080p [CinemaniaHDD]
    Default                     : Yes
    Forced                      : Yes
    Color range                 : Limited
    Color primaries             : BT.709
    Transfer characteristics    : BT.709
    Matrix coefficients         : BT.709
    Original source medium      : Blu-ray

    Audio #1
    ID                          : 2
    ID in the original source m : 4353 (0x1101)
    Format                      : AC-3
    Format/Info                 : Audio Coding 3
    Commercial name             : Dolby Digital
    Codec ID                    : A_AC3
    Duration                    : 2 h 10 min
    Bit rate mode               : Constant
    Bit rate                    : 448 kb/s
    Channel(s)                  : 6 channels
    Channel layout              : L R C LFE Ls Rs
    Sampling rate               : 48.0 kHz
    Frame rate                  : 31.250 FPS (1536 SPF)
    Compression mode            : Lossy
    Stream size                 : 420 MiB (2%)
    Title                       : Español Latino [CinemaniaHDD]
    Language                    : Spanish
    Service kind                : Complete Main
    Default                     : Yes
    Forced                      : Yes
    Original source medium      : Blu-ray

    Audio #2
    ID                          : 3
    ID in the original source m : 4352 (0x1100)
    Format                      : AC-3
    Format/Info                 : Audio Coding 3
    Commercial name             : Dolby Digital
    Codec ID                    : A_AC3
    Duration                    : 2 h 11 min
    Bit rate mode               : Constant
    Bit rate                    : 448 kb/s
    Channel(s)                  : 6 channels
    Channel layout              : L R C LFE Ls Rs
    Sampling rate               : 48.0 kHz
    Frame rate                  : 31.250 FPS (1536 SPF)
    Compression mode            : Lossy
    Stream size                 : 420 MiB (2%)
    Title                       : Ingles [CinemaniaHDD]
    Language                    : English
    Service kind                : Complete Main
    Default                     : No
    Forced                      : No
    Original source medium      : Blu-ray

    Text #1
    ID                          : 4
    ID in the original source m : 4612 (0x1204)
    Format                      : PGS
    Muxing mode                 : zlib
    Codec ID                    : S_HDMV/PGS
    Codec ID/Info               : Picture based subtitle format used on BDs/HD-DVDs
    Duration                    : 2 h 0 min
    Bit rate                    : 1 329 b/s
    Count of elements           : 100
    Stream size                 : 1.14 MiB (0%)
    Title                       : Forzados-PGS [CinemaniaHDD]
    Language                    : Spanish
    Default                     : No
    Forced                      : No
    Original source medium      : Blu-ray

    Text #2
    ID                          : 5
    ID in the original source m : 4610 (0x1202)
    Format                      : PGS
    Muxing mode                 : zlib
    Codec ID                    : S_HDMV/PGS
    Codec ID/Info               : Picture based subtitle format used on BDs/HD-DVDs
    Duration                    : 2 h 5 min
    Bit rate                    : 18.3 kb/s
    Count of elements           : 2080
    Stream size                 : 16.4 MiB (0%)
    Title                       : Español-PGS [CinemaniaHDD]
    Language                    : Spanish
    Default                     : No
    Forced                      : No
    Original source medium      : Blu-ray

    Text #3
    ID                          : 6
    ID in the original source m : 4609 (0x1201)
    Format                      : PGS
    Muxing mode                 : zlib
    Codec ID                    : S_HDMV/PGS
    Codec ID/Info               : Picture based subtitle format used on BDs/HD-DVDs
    Duration                    : 2 h 10 min
    Bit rate                    : 23.5 kb/s
    Count of elements           : 2602
    Stream size                 : 21.9 MiB (0%)
    Title                       : Ingles [CinemaniaHDD]
    Language                    : English
    Default                     : No
    Forced                      : No
    Original source medium      : Blu-ray

    Text #4
    ID                          : 7
    Format                      : UTF-8
    Codec ID                    : S_TEXT/UTF8
    Codec ID/Info               : UTF-8 Plain Text
    Duration                    : 2 h 0 min
    Bit rate                    : 1 b/s
    Count of elements           : 50
    Stream size                 : 1.70 KiB (0%)
    Title                       : Forzados-SRT [CinemaniaHDD]
    Language                    : Spanish
    Default                     : Yes
    Forced                      : Yes

    Text #5
    ID                          : 8
    Format                      : UTF-8
    Codec ID                    : S_TEXT/UTF8
    Codec ID/Info               : UTF-8 Plain Text
    Duration                    : 2 h 0 min
    Bit rate                    : 27 b/s
    Count of elements           : 935
    Stream size                 : 24.4 KiB (0%)
    Title                       : Español-SRT [CinemaniaHDD]
    Language                    : Spanish
    Default                     : No
    Forced                      : No

    Menu
    00:00:00.000                : Chapter 01
    00:08:07.195                : Chapter 02
    00:12:46.432                : Chapter 03
    00:18:21.767                : Chapter 04
    00:28:16.653                : Chapter 05
    00:39:16.645                : Chapter 06
    00:49:27.547                : Chapter 07
    01:00:42.096                : Chapter 08
    01:06:12.677                : Chapter 09
    01:13:08.384                : Chapter 10
    01:20:47.425                : Chapter 11
    01:30:19.288                : Chapter 12
    01:36:23.360                : Chapter 13
    01:41:37.091                : Chapter 14
    01:53:27.801                : Chapter 15
    02:00:31.974                : Chapter 16

  • Peso: 23.5 GiB

Sinopsis

Descargar Sonido De Libertad (2023) REMUX 1080p Latino. Narra la historia de Tim Ballard, un exagente de Seguridad Nacional de Estados Unidos que dejó su trabajo para dedicar su vida, sumergiéndose en el submundo del tráfico de personas a lo largo de hispanoamérica, a intentar salvar las vidas de cientos de niños.

Ficha técnica

Video trailer de la película

Enlaces de descarga

Rip de Bluray

Descargar Sonido De Libertad (2023) REMUX 1080p Latino




Aportes de DPeliculasHDmega la pass es:dpeliculashdmega.org Aportes de CinemaniaHD la pass es:cinemaniahdd.com Aportes recientes:cinemaniahdd.net
Guardado en : Acción , Drama , Remux

Películas relacionadas

  • Cómplices del engaño (2024) REMUX 1080p Latino

    Cómplices del engaño (2024) REMUX 1080p Latino

    2024
    Cómplices del engaño (2024) REMUX 1080p Latino

    1h 56m 2024

    Descargar Cómplices del engaño (2024) REMUX 1080p Latino. Gary Johnson es el asesino profesional más...

    Director: T.J. Larson

    Género: Comedia

    Actores: Tre Styles

  • True Lies (1994) REMUX 1080p Latino – CMHDD

    True Lies (1994) REMUX 1080p Latino – CMHDD

    1994
    True Lies (1994) REMUX 1080p Latino – CMHDD

    2h 21m 1994

    El agente especial Harry Tasker mantiene una doble vida. Harry habla seis idiomas, conoce y domina todas...

    Director: Sharron Reynolds-Enriquez

    Género: Acción

    Actores: William Shipman

  • True Lies (1994) REMUX 4K HDR Latino – CMHDD

    True Lies (1994) REMUX 4K HDR Latino – CMHDD

    1994
    True Lies (1994) REMUX 4K HDR Latino – CMHDD

    2h 21m 1994

    El agente especial Harry Tasker mantiene una doble vida. Harry habla seis idiomas, conoce y domina todas...

    Director: Sharron Reynolds-Enriquez

    Género: Acción

    Actores: William Shipman

  • Spider-Man (2002) REMUX 4K HDR Latino – CMHDD

    Spider-Man (2002) REMUX 4K HDR Latino – CMHDD

    2002
    Spider-Man (2002) REMUX 4K HDR Latino – CMHDD

    2h 1m 2002

    Peter Parker es un joven y tímido estudiante que vive con su tía May y su tío Ben desde la muerte...

    Director: Susana Preston

    Género: Acción

    Actores: William Joseph Firth

descargar Sonido De Libertad (2023) REMUX 1080p Latino Full 1080p 1080p gratis, Sonido De Libertad (2023) REMUX 1080p Latino Full 1080p mega 1 link, Sonido De Libertad (2023) REMUX 1080p Latino Full 1080p pelicula completa, descargar Sonido De Libertad (2023) REMUX 1080p Latino Full 1080p gratis en mega.

Sonido De Libertad (2023) REMUX 1080p Latino pelicula full hd, Sonido De Libertad (2023) REMUX 1080p Latino mega latino, Sonido De Libertad (2023) REMUX 1080p Latino 4k latino, Sonido De Libertad (2023) REMUX 1080p Latino pelicula completa, Sonido De Libertad (2023) REMUX 1080p Latino descargar gratis, descargar Sonido De Libertad (2023) REMUX 1080p Latino pelicula latino, Sonido De Libertad (2023) REMUX 1080p Latino 1 link mega, Sonido De Libertad (2023) REMUX 1080p Latino 1 link google drive, Sonido De Libertad (2023) REMUX 1080p Latino hd 1080p latino.
Comentarios 0