×

¿Problemas para descargar con Mozilla, EDGE? Deshabilita la opción "Abrir vinculos en una pestaña nueva" tal como lo muestra ésta imagen.

Sonic: la película (2020) 4K UHD HDR Web-DL Latino

3.683 vistas

Información de Sonic: la película (2020) 4K UHD HDR Web-DL Latino

Datos de la película

  • Calidad: WEBDL
  • Audio: Se especifica abajo de la Sinopsis
  • Subtitulos: Español Latino SRT - Ingles SRT
  • Resolución: 3840x2160p
  • Formato: MKV
  • Codec: HEVC
  • Encoder: CinemaniaHD
  • Mediainfo: Clic para Mostrar Datos Ver
  • Sonic La Pelicula (2020) REPACK UHD HDR Web-DL Latino.mkv
    Format                      : Matroska
    Format version              : Version 4
    File size                   : 9.99 GiB
    Duration                    : 1 h 38 min
    Overall bit rate            : 14.5 Mb/s
    Movie name                  : Sonic The Hedgehog (2020) CinemaniaHDD.Net
    Encoded date                : UTC 2020-04-16 05:00:48
    Writing application         : mkvmerge v42.0.0 ('Overtime') 64-bit
    Writing library             : libebml v1.3.10 + libmatroska v1.5.2
    Attachments                 : CINEMANIAHD.png

    Video
    ID                          : 1
    Format                      : HEVC
    Format/Info                 : High Efficiency Video Coding
    Commercial name             : HDR10
    Format profile              : Main 10@L5@Main
    Codec ID                    : V_MPEGH/ISO/HEVC
    Duration                    : 1 h 38 min
    Bit rate                    : 13.8 Mb/s
    Width                       : 3 840 pixels
    Height                      : 2 160 pixels
    Display aspect ratio        : 16:9
    Frame rate mode             : Constant
    Frame rate                  : 23.976 (23976/1000) FPS
    Color space                 : YUV
    Chroma subsampling          : 4:2:0
    Bit depth                   : 10 bits
    Bits/(Pixel*Frame)          : 0.069
    Stream size                 : 9.50 GiB (95%)
    Title                       : Web 2160p HDR [CinemaniaHDD]
    Writing library             : x265 3.1.2+1-76650bab70f9:[Linux][GCC 4.8.3][64 bit] 10bit
    Encoding settings           : cpuid=1111039 / frame-threads=1 / wpp / no-pmode / no-pme / no-psnr / no-ssim / log-level=2 / input-csp=1 / input-res=3840x2160 / interlace=0 / total-frames=0 / level-idc=50 / high-tier=1 / uhd-bd=0 / ref=4 / no-allow-non-conformance / repeat-headers / annexb / aud / hrd / info / hash=0 / no-temporal-layers / no-open-gop / min-keyint=24 / keyint=96 / gop-lookahead=0 / bframes=5 / b-adapt=2 / b-pyramid / bframe-bias=0 / rc-lookahead=96 / lookahead-slices=1 / scenecut=40 / radl=0 / no-splice / no-intra-refresh / ctu=32 / min-cu-size=8 / rect / no-amp / max-tu-size=16 / tu-inter-depth=1 / tu-intra-depth=1 / limit-tu=0 / rdoq-level=1 / dynamic-rd=0.00 / no-ssim-rd / signhide / no-tskip / nr-intra=100 / nr-inter=400 / no-constrained-intra / strong-intra-smoothing / max-merge=3 / limit-refs=3 / limit-modes / me=3 / subme=3 / merange=57 / temporal-mvp / weightp / no-weightb / no-analyze-src-pics / deblock=-1:-1 / no-sao / no-sao-non-deblock / rd=4 / no-early-skip / rskip / no-fast-intra / no-tskip-fast / no-cu-lossless / no-b-intra / no-splitrd-skip / rdpenalty=0 / psy-rd=1.80 / psy-rdoq=5.00 / no-rd-refine / no-lossless / cbqpoffs=-2 / crqpoffs=-2 / rc=cbr / bitrate=14092 / qcomp=0.75 / qpstep=1 / stats-write=1 / stats-read=2 / cplxblur=20.0 / qblur=0.5 / vbv-maxrate=14092 / vbv-bufsize=14092 / vbv-init=0.7 / ipratio=1.40 / pbratio=1.30 / aq-mode=1 / aq-strength=1.00 / cutree / zone-count=0 / no-strict-cbr / qg-size=16 / no-rc-grain / qpmax=69 / qpmin=0 / no-const-vbv / sar=1 / overscan=0 / videoformat=5 / range=0 / colorprim=9 / transfer=16 / colormatrix=9 / chromaloc=0 / display-window=0 / master-display=G(13250,34500)B(7500,3000)R(34000,16000)WP(15635,16450)L(40000000,50)cll=856,242 / min-luma=0 / max-luma=1023 / log2-max-poc-lsb=8 / vui-timing-info / vui-hrd-info / slices=1 / no-opt-qp-pps / no-opt-ref-list-length-pps / no-multi-pass-opt-rps / scenecut-bias=0.05 / no-opt-cu-delta-qp / no-aq-motion / hdr / hdr-opt / no-dhdr10-opt / no-idr-recovery-sei / analysis-reuse-level=5 / scale-factor=0 / refine-intra=0 / refine-inter=0 / refine-mv=0 / refine-ctu-distortion=0 / no-limit-sao / ctu-info=0 / no-lowpass-dct / refine-analysis-type=0 / copy-pic=1 / max-ausize-factor=1.0 / no-dynamic-refine / no-single-sei / no-hevc-aq / no-svt / no-field / qp-adaptation-range=1.00
    Default                     : Yes
    Forced                      : Yes
    Color range                 : Limited
    Color primaries             : BT.2020
    Transfer characteristics    : PQ
    Matrix coefficients         : BT.2020 non-constant
    Mastering display color pri : Display P3
    Mastering display luminance : min: 0.0050 cd/m2, max: 4000 cd/m2
    Maximum Content Light Level : 856 cd/m2
    Maximum Frame-Average Light : 242 cd/m2

    Audio #1
    ID                          : 2
    Format                      : AC-3
    Format/Info                 : Audio Coding 3
    Commercial name             : Dolby Digital
    Codec ID                    : A_AC3
    Duration                    : 1 h 38 min
    Bit rate mode               : Constant
    Bit rate                    : 256 kb/s
    Channel(s)                  : 2 channels
    Channel layout              : L R
    Sampling rate               : 44.1 kHz
    Frame rate                  : 28.711 FPS (1536 SPF)
    Bit depth                   : 16 bits
    Compression mode            : Lossy
    Delay relative to video     : 22 ms
    Stream size                 : 181 MiB (2%)
    Title                       : Español Latino [CinemaniaHDD]
    Language                    : Spanish
    Service kind                : Complete Main
    Default                     : Yes
    Forced                      : No

    Audio #2
    ID                          : 3
    Format                      : E-AC-3 JOC
    Format/Info                 : Enhanced AC-3 with Joint Object Coding
    Commercial name             : Dolby Digital Plus with Dolby Atmos
    Codec ID                    : A_EAC3
    Duration                    : 1 h 38 min
    Bit rate mode               : Constant
    Bit rate                    : 448 kb/s
    Channel(s)                  : 6 channels
    Channel layout              : L R C LFE Ls Rs
    Sampling rate               : 48.0 kHz
    Frame rate                  : 31.250 FPS (1536 SPF)
    Compression mode            : Lossy
    Stream size                 : 317 MiB (3%)
    Title                       : Ingles [CinemaniaHDD]
    Language                    : English
    Service kind                : Complete Main
    Default                     : No
    Forced                      : No
    Complexity index            : 16
    Number of dynamic objects   : 15
    Bed channel count           : 1 channel
    Bed channel configuration   : LFE

    Text #1
    ID                          : 4
    Format                      : UTF-8
    Codec ID                    : S_TEXT/UTF8
    Codec ID/Info               : UTF-8 Plain Text
    Duration                    : 1 h 35 min
    Bit rate                    : 0 b/s
    Count of elements           : 24
    Stream size                 : 545 Bytes (0%)
    Title                       : Forzados-SRT [CinemaniaHDD]
    Language                    : Spanish
    Default                     : Yes
    Forced                      : No

    Text #2
    ID                          : 5
    Format                      : UTF-8
    Codec ID                    : S_TEXT/UTF8
    Codec ID/Info               : UTF-8 Plain Text
    Duration                    : 1 h 37 min
    Bit rate                    : 61 b/s
    Count of elements           : 1309
    Stream size                 : 43.8 KiB (0%)
    Title                       : Español-SRT [CinemaniaHDD]
    Language                    : Spanish
    Default                     : No
    Forced                      : No

    Text #3
    ID                          : 6
    Format                      : UTF-8
    Codec ID                    : S_TEXT/UTF8
    Codec ID/Info               : UTF-8 Plain Text
    Duration                    : 1 h 31 min
    Bit rate                    : 66 b/s
    Count of elements           : 1415
    Stream size                 : 44.3 KiB (0%)
    Title                       : Ingles-SRT [CinemaniaHDD]
    Language                    : English
    Default                     : No
    Forced                      : No

    Menu
    00:00:00.000                : en:Chapter 1
    00:03:51.856                : en:Chapter 2
    00:09:32.988                : en:Chapter 3
    00:12:45.972                : en:Chapter 4
    00:18:09.420                : en:Chapter 5
    00:22:20.336                : en:Chapter 6
    00:27:33.691                : en:Chapter 7
    00:35:09.312                : en:Chapter 8
    00:41:37.324                : en:Chapter 9
    00:51:24.619                : en:Chapter 10
    01:01:04.823                : en:Chapter 11
    01:04:38.203                : en:Chapter 12
    01:10:20.336                : en:Chapter 13
    01:18:54.016                : en:Chapter 14
    01:25:38.711                : en:Chapter 15
    01:30:27.290                : en:Chapter 16

  • Peso: 9.99 GiB

Sinopsis

Descargar Sonic: la película (2020) 4K UHD HDR Web-DL Latino. Sonic, el famoso erizo azul de SEGA vivirá su primera aventura en la pantalla grande. En esta adaptación cinematográfica basada en la conocida saga de videojuegos podremos ver a los personajes icónicos de la franquicia. Su protagonista será Sonic, el erizo con la habilidad de correr a la velocidad del sonido y que, junto con sus amigos el zorro Tails y el equidna Knuckles, combaten con el malvado Doctor Eggman, que siempre está tratando de dominar el mundo y apoderarse de las esmeraldas del caos.

Audio Español Latino AC3 2.0 WebDL – Ingles EAC3 5.1 WebDL

 

Nota: Resubida; Corregido desfase de audio, si no se desea descargar de nuevo usar y aplicar delay [-1093 ms]

Ficha técnica

Video trailer de la película

Enlaces de descarga

Rip de Bluray

Descargar Sonic: la película (2020) 4K UHD HDR Web-DL Latino




Aportes de DPeliculasHDmega la pass es:dpeliculashdmega.org Aportes de CinemaniaHD la pass es:cinemaniahdd.com

Películas relacionadas

descargar Sonic: la película (2020) 4K UHD HDR Web-DL Latino WEBDL 1080p gratis, Sonic: la película (2020) 4K UHD HDR Web-DL Latino WEBDL mega 1 link, Sonic: la película (2020) 4K UHD HDR Web-DL Latino WEBDL pelicula completa, descargar Sonic: la película (2020) 4K UHD HDR Web-DL Latino WEBDL gratis en mega.

Sonic: la película (2020) 4K UHD HDR Web-DL Latino pelicula full hd, Sonic: la película (2020) 4K UHD HDR Web-DL Latino mega latino, Sonic: la película (2020) 4K UHD HDR Web-DL Latino 4k latino, Sonic: la película (2020) 4K UHD HDR Web-DL Latino pelicula completa, Sonic: la película (2020) 4K UHD HDR Web-DL Latino descargar gratis, descargar Sonic: la película (2020) 4K UHD HDR Web-DL Latino pelicula latino, Sonic: la película (2020) 4K UHD HDR Web-DL Latino 1 link mega, Sonic: la película (2020) 4K UHD HDR Web-DL Latino 1 link google drive, Sonic: la película (2020) 4K UHD HDR Web-DL Latino hd 1080p latino.
Comentarios 3
  • CinefiloCool - 16 abril, 2020

    Resubida con el desfase de audio corregido, perdon por el inconveniente 🙂
    para los que ya han descargado y no quieren hacerlo de nuevo, pueden usar el delay revisado ahi arriba. Gracias por avisar!

  • rony saire - 10 abril, 2020

    xq se ve opaca la pelicula

    • CinefiloCool - 16 abril, 2020

      porque es en HDR y necesitaras un dispositivo compatible que lo pueda reproducir, si no sabes a que se refiere con eso esta version no es para ti, puedes descargar sin problemas cualquier version 1080p 😀