×

¿Problemas para descargar con Mozilla, EDGE? Deshabilita la opción "Abrir vinculos en una pestaña nueva" tal como lo muestra ésta imagen.

Sonic: la película (2020) AMZN Web-DL 1080p Latino

2.904 vistas

Información de Sonic: la película (2020) AMZN Web-DL 1080p Latino

Datos de la película

  • Calidad: WEBDL
  • Audio: Se especifica abajo de la Sinopsis
  • Subtitulos: Español Latino SRT - Ingles SRT
  • Resolución: 1920x800p
  • Formato: MKV
  • Codec: H.264
  • Encoder: CinemaniaHD
  • Mediainfo: Clic para Mostrar Datos Ver
  • Sonic La Pelicula (2020) AMZN Web-DL 1080p Latino.mkv
    Format                      : Matroska
    Format version              : Version 4
    File size                   : 5.57 GiB
    Duration                    : 1 h 38 min
    Overall bit rate            : 8 063 kb/s
    Movie name                  : Sonic The Hedgehog (2020) CinemaniaHDD.Net
    Encoded date                : UTC 2020-04-10 03:41:14
    Writing application         : mkvmerge v42.0.0 ('Overtime') 64-bit
    Writing library             : libebml v1.3.10 + libmatroska v1.5.2

    Video
    ID                          : 1
    Format                      : AVC
    Format/Info                 : Advanced Video Codec
    Format profile              : High@L4
    Format settings             : CABAC / 4 Ref Frames
    Format settings, CABAC      : Yes
    Format settings, ReFrames   : 4 frames
    Codec ID                    : V_MPEG4/ISO/AVC
    Duration                    : 1 h 38 min
    Bit rate mode               : Constant
    Bit rate                    : 7 165 kb/s
    Nominal bit rate            : 10 000 kb/s
    Width                       : 1 920 pixels
    Height                      : 800 pixels
    Display aspect ratio        : 2.40:1
    Frame rate mode             : Constant
    Frame rate                  : 23.976 (24000/1001) FPS
    Color space                 : YUV
    Chroma subsampling          : 4:2:0
    Bit depth                   : 8 bits
    Scan type                   : Progressive
    Bits/(Pixel*Frame)          : 0.195
    Stream size                 : 4.95 GiB (89%)
    Title                       : Web HD1080p [CinemaniaHDD]
    Default                     : Yes
    Forced                      : No
    Color range                 : Limited
    Color primaries             : BT.709
    Transfer characteristics    : BT.709
    Matrix coefficients         : BT.709

    Audio #1
    ID                          : 2
    Format                      : AC-3
    Format/Info                 : Audio Coding 3
    Commercial name             : Dolby Digital
    Codec ID                    : A_AC3
    Duration                    : 1 h 38 min
    Bit rate mode               : Constant
    Bit rate                    : 256 kb/s
    Channel(s)                  : 2 channels
    Channel layout              : L R
    Sampling rate               : 44.1 kHz
    Frame rate                  : 28.711 FPS (1536 SPF)
    Bit depth                   : 16 bits
    Compression mode            : Lossy
    Stream size                 : 181 MiB (3%)
    Title                       : Español Latino [CinemaniaHDD]
    Language                    : Spanish
    Service kind                : Complete Main
    Default                     : Yes
    Forced                      : No

    Audio #2
    ID                          : 3
    Format                      : E-AC-3
    Format/Info                 : Enhanced AC-3
    Commercial name             : Dolby Digital Plus
    Codec ID                    : A_EAC3
    Duration                    : 1 h 38 min
    Bit rate mode               : Constant
    Bit rate                    : 640 kb/s
    Channel(s)                  : 6 channels
    Channel layout              : L R C LFE Ls Rs
    Sampling rate               : 48.0 kHz
    Frame rate                  : 31.250 FPS (1536 SPF)
    Compression mode            : Lossy
    Stream size                 : 453 MiB (8%)
    Title                       : Ingles [CinemaniaHDD]
    Language                    : English
    Service kind                : Complete Main
    Default                     : No
    Forced                      : No

    Text #1
    ID                          : 4
    Format                      : UTF-8
    Codec ID                    : S_TEXT/UTF8
    Codec ID/Info               : UTF-8 Plain Text
    Duration                    : 1 h 35 min
    Bit rate                    : 0 b/s
    Count of elements           : 24
    Stream size                 : 545 Bytes (0%)
    Title                       : Forzados-SRT [CinemaniaHDD]
    Language                    : Spanish
    Default                     : Yes
    Forced                      : No

    Text #2
    ID                          : 5
    Format                      : UTF-8
    Codec ID                    : S_TEXT/UTF8
    Codec ID/Info               : UTF-8 Plain Text
    Duration                    : 1 h 37 min
    Bit rate                    : 61 b/s
    Count of elements           : 1309
    Stream size                 : 43.8 KiB (0%)
    Title                       : Español-SRT [CinemaniaHDD]
    Language                    : Spanish
    Default                     : No
    Forced                      : No

    Text #3
    ID                          : 6
    Format                      : UTF-8
    Codec ID                    : S_TEXT/UTF8
    Codec ID/Info               : UTF-8 Plain Text
    Duration                    : 1 h 31 min
    Bit rate                    : 66 b/s
    Count of elements           : 1415
    Stream size                 : 44.3 KiB (0%)
    Title                       : Ingles-SRT [CinemaniaHDD]
    Language                    : English
    Default                     : No
    Forced                      : No

    Menu
    00:00:00.000                : en:Studio Logo
    00:00:51.000                : en:Scene 2
    00:01:30.000                : en:Scene 3
    00:03:43.000                : en:Title Sequence
    00:03:51.000                : en:Scene 5
    00:09:34.000                : en:Scene 6
    00:17:02.000                : en:Scene 7
    00:22:20.000                : en:Scene 8
    00:31:35.000                : en:Scene 9
    00:35:09.000                : en:Scene 10
    00:38:29.000                : en:Scene 11
    00:48:40.000                : en:Scene 12
    00:59:41.000                : en:Scene 13
    01:04:37.000                : en:Scene 14
    01:12:43.000                : en:Scene 15
    01:20:15.000                : en:Scene 16
    01:25:41.000                : en:Scene 17
    01:29:03.000                : en:Scene 18
    01:30:27.000                : en:End Credits
    01:32:05.000                : en:Scene 20
    01:32:45.000                : en:End Credits

  • Peso: 5.57 GiB

Sinopsis

Descargar Sonic: la película (2020) AMZN Web-DL 1080p Latino. Sonic, el famoso erizo azul de SEGA vivirá su primera aventura en la pantalla grande. En esta adaptación cinematográfica basada en la conocida saga de videojuegos podremos ver a los personajes icónicos de la franquicia. Su protagonista será Sonic, el erizo con la habilidad de correr a la velocidad del sonido y que, junto con sus amigos el zorro Tails y el equidna Knuckles, combaten con el malvado Doctor Eggman, que siempre está tratando de dominar el mundo y apoderarse de las esmeraldas del caos.

Audio Español Latino AC3 2.0 Itunes – Ingles EAC3 5.1 Amazon

Ficha técnica

Video trailer de la película

Enlaces de descarga

Rip de Bluray

Descargar Sonic: la película (2020) AMZN Web-DL 1080p Latino




Aportes de DPeliculasHDmega la pass es:dpeliculashdmega.org Aportes de CinemaniaHD la pass es:cinemaniahdd.com

Películas relacionadas

descargar Sonic: la película (2020) AMZN Web-DL 1080p Latino WEBDL 1080p gratis, Sonic: la película (2020) AMZN Web-DL 1080p Latino WEBDL mega 1 link, Sonic: la película (2020) AMZN Web-DL 1080p Latino WEBDL pelicula completa, descargar Sonic: la película (2020) AMZN Web-DL 1080p Latino WEBDL gratis en mega.

Sonic: la película (2020) AMZN Web-DL 1080p Latino pelicula full hd, Sonic: la película (2020) AMZN Web-DL 1080p Latino mega latino, Sonic: la película (2020) AMZN Web-DL 1080p Latino 4k latino, Sonic: la película (2020) AMZN Web-DL 1080p Latino pelicula completa, Sonic: la película (2020) AMZN Web-DL 1080p Latino descargar gratis, descargar Sonic: la película (2020) AMZN Web-DL 1080p Latino pelicula latino, Sonic: la película (2020) AMZN Web-DL 1080p Latino 1 link mega, Sonic: la película (2020) AMZN Web-DL 1080p Latino 1 link google drive, Sonic: la película (2020) AMZN Web-DL 1080p Latino hd 1080p latino.
Comentarios 0