×

¿Problemas para descargar con Mozilla, EDGE? Deshabilita la opción "Abrir vinculos en una pestaña nueva" tal como lo muestra ésta imagen.

Sonic 2: La Película (2022) WEB-DL 4K UHD HDR Latino

2.463 vistas

Información de Sonic 2: La Película (2022) WEB-DL 4K UHD HDR Latino

Datos de la película

  • Calidad: WEBDL
  • Audio: Se especifica abajo de la Sinopsis
  • Subtitulos: Español Latino SRT- FORZADOS SRT
  • Resolución: 3840x1606p
  • Formato: MKV
  • Codec: HEVC
  • Encoder: Melkor
  • Mediainfo: Clic para Mostrar Datos Ver
  • Sonic 2 La Pelicula (2022) WEB UHD HDR Latino.mkv
    Format                      : Matroska
    Format version              : Version 4
    File size                   : 13.8 GiB
    Duration                    : 2 h 3 min
    Overall bit rate            : 15.9 Mb/s
    Movie name                  : Sonic The Hedgehog 2 (2022) CinemaniaHDD.Net
    Encoded date                : UTC 2022-05-21 07:10:22
    Writing application         : mkvmerge v56.1.0 ('My Friend') 64-bit
    Writing library             : libebml v1.4.2 + libmatroska v1.6.4
    Attachments                 : CINEMANIAHD.png

    Video
    ID                          : 1
    Format                      : HEVC
    Format/Info                 : High Efficiency Video Coding
    Format profile              : Main 10@L5@High
    HDR format                  : SMPTE ST 2086, HDR10 compatible
    Codec ID                    : V_MPEGH/ISO/HEVC
    Duration                    : 2 h 2 min
    Bit rate                    : 14.1 Mb/s
    Width                       : 3 840 pixels
    Height                      : 1 606 pixels
    Display aspect ratio        : 2.40:1
    Frame rate mode             : Constant
    Frame rate                  : 23.976 (24000/1001) FPS
    Color space                 : YUV
    Chroma subsampling          : 4:2:0 (Type 2)
    Bit depth                   : 10 bits
    Bits/(Pixel*Frame)          : 0.095
    Stream size                 : 12.0 GiB (87%)
    Title                       : Web 2160p HDR [CinemaniaHDD]
    Default                     : Yes
    Forced                      : No
    Color range                 : Limited
    Color primaries             : BT.2020
    Transfer characteristics    : PQ
    Matrix coefficients         : BT.2020 non-constant
    Mastering display color pri : Display P3
    Mastering display luminance : min: 0.0050 cd/m2, max: 1000 cd/m2
    Maximum Content Light Level : 1380 cd/m2
    Maximum Frame-Average Light : 296 cd/m2

    Audio #1
    ID                          : 2
    Format                      : AC-3
    Format/Info                 : Audio Coding 3
    Commercial name             : Dolby Digital
    Codec ID                    : A_AC3
    Duration                    : 2 h 3 min
    Bit rate mode               : Constant
    Bit rate                    : 640 kb/s
    Channel(s)                  : 6 channels
    Channel layout              : L R C LFE Ls Rs
    Sampling rate               : 48.0 kHz
    Frame rate                  : 31.250 FPS (1536 SPF)
    Compression mode            : Lossy
    Stream size                 : 567 MiB (4%)
    Title                       : Español Latino AC3 [CinemaniaHDD]
    Language                    : Spanish
    Service kind                : Complete Main
    Default                     : Yes
    Forced                      : Yes

    Audio #2
    ID                          : 3
    Format                      : E-AC-3 JOC
    Format/Info                 : Enhanced AC-3 with Joint Object Coding
    Commercial name             : Dolby Digital Plus with Dolby Atmos
    Codec ID                    : A_EAC3
    Duration                    : 2 h 2 min
    Bit rate mode               : Constant
    Bit rate                    : 768 kb/s
    Channel(s)                  : 6 channels
    Channel layout              : L R C LFE Ls Rs
    Sampling rate               : 48.0 kHz
    Frame rate                  : 31.250 FPS (1536 SPF)
    Compression mode            : Lossy
    Stream size                 : 672 MiB (5%)
    Title                       : Ingles [CinemaniaHDD]
    Language                    : English
    Service kind                : Complete Main
    Default                     : No
    Forced                      : No
    Complexity index            : 16
    Number of dynamic objects   : 15
    Bed channel count           : 1 channel
    Bed channel configuration   : LFE

    Audio #3
    ID                          : 4
    Format                      : E-AC-3
    Format/Info                 : Enhanced AC-3
    Commercial name             : Dolby Digital Plus
    Codec ID                    : A_EAC3
    Duration                    : 2 h 3 min
    Bit rate mode               : Constant
    Bit rate                    : 640 kb/s
    Channel(s)                  : 6 channels
    Channel layout              : L R C LFE Ls Rs
    Sampling rate               : 48.0 kHz
    Frame rate                  : 31.250 FPS (1536 SPF)
    Compression mode            : Lossy
    Stream size                 : 567 MiB (4%)
    Title                       : Español Latino EAC3 [CinemaniaHDD]
    Language                    : Spanish
    Service kind                : Complete Main
    Default                     : No
    Forced                      : No

    Text #1
    ID                          : 5
    Format                      : UTF-8
    Codec ID                    : S_TEXT/UTF8
    Codec ID/Info               : UTF-8 Plain Text
    Duration                    : 2 h 1 min
    Bit rate                    : 0 b/s
    Count of elements           : 25
    Stream size                 : 554 Bytes (0%)
    Title                       : Forzados-SRT [CinemaniaHDD]
    Language                    : Spanish
    Default                     : Yes
    Forced                      : Yes

    Text #2
    ID                          : 6
    Format                      : UTF-8
    Codec ID                    : S_TEXT/UTF8
    Codec ID/Info               : UTF-8 Plain Text
    Duration                    : 2 h 1 min
    Bit rate                    : 48 b/s
    Count of elements           : 1317
    Stream size                 : 43.0 KiB (0%)
    Title                       : Español-SRT [CinemaniaHDD]
    Language                    : Spanish
    Default                     : No
    Forced                      : No

    Text #3
    ID                          : 7
    Format                      : UTF-8
    Codec ID                    : S_TEXT/UTF8
    Codec ID/Info               : UTF-8 Plain Text
    Duration                    : 1 h 52 min
    Bit rate                    : 63 b/s
    Count of elements           : 1650
    Stream size                 : 52.4 KiB (0%)
    Title                       : Ingles-SRT [CinemaniaHDD]
    Language                    : English
    Default                     : No
    Forced                      : No

    Menu
    00:00:00.000                : Chapter 01
    00:05:54.354                : Chapter 02
    00:09:59.516                : Chapter 03
    00:16:32.951                : Chapter 04
    00:20:58.925                : Chapter 05
    00:28:05.477                : Chapter 06
    00:34:19.934                : Chapter 07
    00:39:09.891                : Chapter 08
    00:48:24.904                : Chapter 09
    00:58:32.512                : Chapter 10
    01:04:57.605                : Chapter 11
    01:11:02.053                : Chapter 12
    01:16:09.778                : Chapter 13
    01:26:59.928                : Chapter 14
    01:32:31.843                : Chapter 15
    01:40:46.046                : Chapter 16
    01:48:21.251                : Chapter 17
    01:53:56.086                : Chapter 18

  • Peso: 13.8 GiB

Sinopsis

Descargar Sonic 2: La Película (2022) WEB-DL 4K UHD HDR Latino. Después de establecerse en Green Hills, Sonic se muere por demostrar que tiene madera de auténtico héroe, pero Robotnik regresa con nuevo compañero Knuckles, en busca de una esmeralda que tiene el poder de destruir civilizaciones, pero Sonic no esta solo lo ayudara Tails.

Español Latino EAC3 & AC3 5.1 Web – Ingles EAC3 JOC 5.1 Web

Ficha técnica

Video trailer de la película

Enlaces de descarga

Rip de Bluray

Descargar Sonic 2: La Película (2022) WEB-DL 4K UHD HDR Latino




Aportes de DPeliculasHDmega la pass es:dpeliculashdmega.org Aportes de CinemaniaHD la pass es:cinemaniahdd.com

Películas relacionadas

descargar Sonic 2: La Película (2022) WEB-DL 4K UHD HDR Latino WEBDL 1080p gratis, Sonic 2: La Película (2022) WEB-DL 4K UHD HDR Latino WEBDL mega 1 link, Sonic 2: La Película (2022) WEB-DL 4K UHD HDR Latino WEBDL pelicula completa, descargar Sonic 2: La Película (2022) WEB-DL 4K UHD HDR Latino WEBDL gratis en mega.

Sonic 2: La Película (2022) WEB-DL 4K UHD HDR Latino pelicula full hd, Sonic 2: La Película (2022) WEB-DL 4K UHD HDR Latino mega latino, Sonic 2: La Película (2022) WEB-DL 4K UHD HDR Latino 4k latino, Sonic 2: La Película (2022) WEB-DL 4K UHD HDR Latino pelicula completa, Sonic 2: La Película (2022) WEB-DL 4K UHD HDR Latino descargar gratis, descargar Sonic 2: La Película (2022) WEB-DL 4K UHD HDR Latino pelicula latino, Sonic 2: La Película (2022) WEB-DL 4K UHD HDR Latino 1 link mega, Sonic 2: La Película (2022) WEB-DL 4K UHD HDR Latino 1 link google drive, Sonic 2: La Película (2022) WEB-DL 4K UHD HDR Latino hd 1080p latino.
Comentarios 0