×

¿Problemas para descargar con Mozilla, EDGE? Deshabilita la opción "Abrir vinculos en una pestaña nueva" tal como lo muestra ésta imagen.

Song to Song (2017) REMUX 1080p Latino

282 vistas

Información de Song to Song (2017) REMUX 1080p Latino

Datos de la película

  • Calidad: Full 1080p
  • Audio: Español Latino AC3 5.1 BLURAY - Ingles DTS 5.1 BLURAY
  • Subtitulos: Español Latino PGS - Ingles PGS
  • Resolución: 1920x1080p
  • Formato: MKV
  • Codec: H.264
  • Encoder: CinefiloCool
  • Mediainfo: Clic para Mostrar Datos Ver
  • Song to Song (2017) REMUX 1080p Latino-CMHDD.mkv
    Format                      : Matroska
    Format version              : Version 4
    File size                   : 34.6 GiB
    Duration                    : 2 h 8 min
    Overall bit rate mode       : Variable
    Overall bit rate            : 38.4 Mb/s
    Movie name                  : Song to Song (2017) CinemaniaHDD.Net
    Encoded date                : UTC 2022-03-31 22:57:30
    Writing application         : mkvmerge v56.1.0 ('My Friend') 64-bit
    Writing library             : libebml v1.4.2 + libmatroska v1.6.4
    Attachments                 : CINEMANIAHD.png

    Video
    ID                          : 1
    Format                      : AVC
    Format/Info                 : Advanced Video Codec
    Format profile              : High@L4.1
    Format settings             : CABAC / 4 Ref Frames
    Format settings, CABAC      : Yes
    Format settings, Reference  : 4 frames
    Codec ID                    : V_MPEG4/ISO/AVC
    Duration                    : 2 h 8 min
    Bit rate mode               : Variable
    Bit rate                    : 34.5 Mb/s
    Maximum bit rate            : 37.0 Mb/s
    Width                       : 1 920 pixels
    Height                      : 1 080 pixels
    Display aspect ratio        : 16:9
    Frame rate mode             : Constant
    Frame rate                  : 23.976 (24000/1001) FPS
    Color space                 : YUV
    Chroma subsampling          : 4:2:0
    Bit depth                   : 8 bits
    Scan type                   : Progressive
    Bits/(Pixel*Frame)          : 0.695
    Stream size                 : 31.1 GiB (90%)
    Title                       : REMUX HD1080p [CinemaniaHDD]
    Language                    : English
    Default                     : Yes
    Forced                      : Yes

    Audio #1
    ID                          : 2
    Format                      : AC-3
    Format/Info                 : Audio Coding 3
    Commercial name             : Dolby Digital
    Codec ID                    : A_AC3
    Duration                    : 2 h 8 min
    Bit rate mode               : Constant
    Bit rate                    : 448 kb/s
    Channel(s)                  : 6 channels
    Channel layout              : L R C LFE Ls Rs
    Sampling rate               : 48.0 kHz
    Frame rate                  : 31.250 FPS (1536 SPF)
    Compression mode            : Lossy
    Stream size                 : 413 MiB (1%)
    Title                       : Español Latino [CinemaniaHDD]
    Language                    : Spanish
    Service kind                : Complete Main
    Default                     : Yes
    Forced                      : Yes

    Audio #2
    ID                          : 3
    Format                      : DTS XLL
    Format/Info                 : Digital Theater Systems
    Commercial name             : DTS-HD Master Audio
    Codec ID                    : A_DTS
    Duration                    : 2 h 8 min
    Bit rate mode               : Variable
    Bit rate                    : 3 362 kb/s
    Channel(s)                  : 6 channels
    Channel layout              : C L R Ls Rs LFE
    Sampling rate               : 48.0 kHz
    Frame rate                  : 93.750 FPS (512 SPF)
    Bit depth                   : 24 bits
    Compression mode            : Lossless
    Stream size                 : 3.03 GiB (9%)
    Title                       : Ingles [CinemaniaHDD]
    Language                    : English
    Default                     : No
    Forced                      : No

    Text #1
    ID                          : 4
    Format                      : PGS
    Muxing mode                 : zlib
    Codec ID                    : S_HDMV/PGS
    Codec ID/Info               : Picture based subtitle format used on BDs/HD-DVDs
    Duration                    : 2 h 7 min
    Bit rate                    : 17.9 kb/s
    Count of elements           : 1649
    Stream size                 : 16.3 MiB (0%)
    Title                       : Español-PGS [CinemaniaHDD]
    Language                    : Spanish
    Default                     : No
    Forced                      : No

    Text #2
    ID                          : 5
    Format                      : PGS
    Muxing mode                 : zlib
    Codec ID                    : S_HDMV/PGS
    Codec ID/Info               : Picture based subtitle format used on BDs/HD-DVDs
    Duration                    : 2 h 7 min
    Bit rate                    : 32.5 kb/s
    Count of elements           : 3101
    Stream size                 : 29.8 MiB (0%)
    Title                       : Ingles-PGS [CinemaniaHDD]
    Language                    : English
    Default                     : No
    Forced                      : No

    Text #3
    ID                          : 6
    Format                      : UTF-8
    Codec ID                    : S_TEXT/UTF8
    Codec ID/Info               : UTF-8 Plain Text
    Duration                    : 4 s 0 ms
    Bit rate                    : 24 b/s
    Count of elements           : 1
    Stream size                 : 12.0 Bytes (0%)
    Title                       : Forzados-SRT [CinemaniaHDD]
    Language                    : Spanish
    Default                     : Yes
    Forced                      : Yes

    Text #4
    ID                          : 7
    Format                      : UTF-8
    Codec ID                    : S_TEXT/UTF8
    Codec ID/Info               : UTF-8 Plain Text
    Duration                    : 2 h 1 min
    Bit rate                    : 28 b/s
    Count of elements           : 823
    Stream size                 : 25.4 KiB (0%)
    Title                       : Español-SRT [CinemaniaHDD]
    Language                    : Spanish
    Default                     : No
    Forced                      : No

    Menu
    00:00:00.000                : Chapter 1
    00:05:20.695                : Chapter 2
    00:11:44.245                : Chapter 3
    00:19:25.790                : Chapter 4
    00:26:51.193                : Chapter 5
    00:31:57.249                : Chapter 6
    00:38:45.240                : Chapter 7
    00:44:57.111                : Chapter 8
    00:49:30.509                : Chapter 9
    00:56:46.528                : Chapter 10
    01:04:52.722                : Chapter 11
    01:11:45.635                : Chapter 12
    01:16:17.531                : Chapter 13
    01:24:38.240                : Chapter 14
    01:31:05.251                : Chapter 15
    01:34:57.108                : Chapter 16
    01:44:31.974                : Chapter 17
    01:50:06.350                : Chapter 18
    01:56:02.789                : Chapter 19
    01:59:57.440                : Chapter 20

  • Peso: 34.6 GiB

Sinopsis

Descagar Song to Song (2017) REMUX 1080p Latino. Dos triángulos amorosos interrelacionados, la de las parejas formadas por los compositores Faye (Rooney Mara) y BV (Ryan Gosling), y la del productor musical Cook (Michael Fassbender) y su novia camarera (Natalie Portman), persiguiendo todos el éxito mientras tropiezan con la obsesión y la traición en el mundo de la escena musical de Austin, Texas.

Disponible Solo Para VIP!!!

Ficha técnica

Video trailer de la película

Enlaces de descarga

Rip de Bluray

Descargar Song to Song (2017) REMUX 1080p Latino


Aportes de DPeliculasHDmega la pass es:dpeliculashdmega.org Aportes de CinemaniaHD la pass es:cinemaniahdd.com
Guardado en : Drama , Remux , Romance

Películas relacionadas

descargar Song to Song (2017) REMUX 1080p Latino Full 1080p 1080p gratis, Song to Song (2017) REMUX 1080p Latino Full 1080p mega 1 link, Song to Song (2017) REMUX 1080p Latino Full 1080p pelicula completa, descargar Song to Song (2017) REMUX 1080p Latino Full 1080p gratis en mega.

Song to Song (2017) REMUX 1080p Latino pelicula full hd, Song to Song (2017) REMUX 1080p Latino mega latino, Song to Song (2017) REMUX 1080p Latino 4k latino, Song to Song (2017) REMUX 1080p Latino pelicula completa, Song to Song (2017) REMUX 1080p Latino descargar gratis, descargar Song to Song (2017) REMUX 1080p Latino pelicula latino, Song to Song (2017) REMUX 1080p Latino 1 link mega, Song to Song (2017) REMUX 1080p Latino 1 link google drive, Song to Song (2017) REMUX 1080p Latino hd 1080p latino.
Comentarios 0