Song to Song (2017) 1080p Latino

1.015 vistas
1 estrella2 estrellas3 estrellas4 estrellas5 estrellas (Ninguna valoración todavía)
Cargando…

Información de Song to Song (2017) 1080p Latino

Datos de la película

  • Calidad: 1080p
  • Audio: Español Latino AC3 5.1 iTUNES - Ingles AC3 5.1 BLURAY
  • Subtitulos: Español Latino SRT
  • Resolución: 1920x800p
  • Formato: MKV
  • Codec: H.264
  • Encoder: Dpelis
  • Mediainfo: Clic para Mostrar Datos Ver
  • Song to Song (2017) 1080p Latino.mkv
    Format                      : Matroska
    Format version              : Version 4 / Version 2
    File size                   : 3.75 GiB
    Duration                    : 2 h 8 min
    Overall bit rate            : 4 167 kb/s
    Movie name                  : DPeliculasHDMega.ORG
    Encoded date                : UTC 2017-10-21 19:52:33 / UTC 2017-10-21T18:34:44Z
    Writing application         : mkvmerge v10.0.0 ('To Drown In You') 64bit
    Writing library             : libebml v1.3.4 + libmatroska v1.4.5 / Lavf57.7.2

    Video
    ID                          : 1
    Format                      : AVC
    Format/Info                 : Advanced Video Codec
    Format profile              : [email protected]
    Format settings, CABAC      : Yes
    Format settings, RefFrames  : 5 frames
    Codec ID                    : V_MPEG4/ISO/AVC
    Duration                    : 2 h 8 min
    Bit rate                    : 3 316 kb/s
    Nominal bit rate            : 3 500 kb/s
    Width                       : 1 920 pixels
    Height                      : 802 pixels
    Display aspect ratio        : 2.40:1
    Frame rate mode             : Constant
    Frame rate                  : 23.976 (24000/1001) FPS
    Color space                 : YUV
    Chroma subsampling          : 4:2:0
    Bit depth                   : 8 bits
    Scan type                   : Progressive
    Bits/(Pixel*Frame)          : 0.090
    Stream size                 : 2.99 GiB (80%)
    Writing library             : x264 core 148 r2708 86b7198
    Encoding settings           : cabac=1 / ref=5 / deblock=1:0:0 / analyse=0x3:0x113 / me=umh / subme=8 / psy=1 / psy_rd=1.00:0.00 / mixed_ref=1 / me_range=16 / chroma_me=1 / trellis=1 / 8x8dct=1 / cqm=0 / deadzone=21,11 / fast_pskip=1 / chroma_qp_offset=-2 / threads=25 / lookahead_threads=4 / sliced_threads=0 / nr=0 / decimate=1 / interlaced=0 / bluray_compat=0 / constrained_intra=0 / bframes=3 / b_pyramid=2 / b_adapt=2 / b_bias=0 / direct=3 / weightb=1 / open_gop=0 / weightp=2 / keyint=240 / keyint_min=24 / scenecut=40 / intra_refresh=0 / rc_lookahead=50 / rc=abr / mbtree=1 / bitrate=3500 / ratetol=1.0 / qcomp=0.60 / qpmin=0 / qpmax=69 / qpstep=4 / vbv_maxrate=62500 / vbv_bufsize=78125 / nal_hrd=none / filler=0 / ip_ratio=1.40 / aq=1:1.00
    Default                     : Yes
    Forced                      : No
    Color range                 : Limited
    Color primaries             : BT.709
    Transfer characteristics    : BT.709
    Matrix coefficients         : BT.709
    Statistics Tags Issue       : mkvmerge v10.0.0 ('To Drown In You') 64bit 2017-10-21 19:52:33 / mkvmerge v10.0.0 ('To Drown In You') 64bit 2017-10-21 19:52:33 / UTC 2017-10-21T18:34:44Z
    FromStats_BitRate           : 3396737
    FromStats_Duration          : 02:08:53.685000000
    FromStats_FrameCount        : 185423
    FromStats_StreamSize        : 3283662232

    Audio #1
    ID                          : 2
    Format                      : AC-3
    Format/Info                 : Audio Coding 3
    Format settings, Endianness : Big
    Codec ID                    : A_AC3
    Duration                    : 2 h 8 min
    Bit rate mode               : Constant
    Bit rate                    : 384 kb/s
    Channel(s)                  : 6 channels
    Channel positions           : Front: L C R, Side: L R, LFE
    Sampling rate               : 48.0 kHz
    Frame rate                  : 31.250 FPS (1536 SPF)
    Bit depth                   : 16 bits
    Compression mode            : Lossy
    Delay relative to video     : -5 ms
    Stream size                 : 354 MiB (9%)
    Language                    : Spanish
    Service kind                : Complete Main
    Default                     : Yes
    Forced                      : No
    Statistics Tags Issue       : mkvmerge v10.0.0 ('To Drown In You') 64bit 2017-10-21 19:52:33 / mkvmerge v10.0.0 ('To Drown In You') 64bit 2017-10-21 19:52:33 / UTC 2017-10-21T18:34:44Z
    FromStats_BitRate           : 384000
    FromStats_Duration          : 02:08:50.496000000
    FromStats_FrameCount        : 241578
    FromStats_StreamSize        : 371063808

    Audio #2
    ID                          : 3
    Format                      : AC-3
    Format/Info                 : Audio Coding 3
    Format settings, Endianness : Big
    Codec ID                    : A_AC3
    Duration                    : 2 h 8 min
    Bit rate mode               : Constant
    Bit rate                    : 384 kb/s
    Channel(s)                  : 6 channels
    Channel positions           : Front: L C R, Side: L R, LFE
    Sampling rate               : 48.0 kHz
    Frame rate                  : 31.250 FPS (1536 SPF)
    Bit depth                   : 16 bits
    Compression mode            : Lossy
    Delay relative to video     : -5 ms
    Stream size                 : 354 MiB (9%)
    Title                       : Surround
    Language                    : English
    Service kind                : Complete Main
    Default                     : No
    Forced                      : No
    Statistics Tags Issue       : mkvmerge v10.0.0 ('To Drown In You') 64bit 2017-10-21 19:52:33 / mkvmerge v10.0.0 ('To Drown In You') 64bit 2017-10-21 19:52:33 / UTC 2017-10-21T18:34:44Z
    FromStats_BitRate           : 384000
    FromStats_Duration          : 02:08:53.664000000
    FromStats_FrameCount        : 241677
    FromStats_StreamSize        : 371215872

    Text
    ID                          : 4
    Format                      : UTF-8
    Codec ID                    : S_TEXT/UTF8
    Codec ID/Info               : UTF-8 Plain Text
    Language                    : Spanish
    Default                     : No
    Forced                      : No
    Statistics Tags Issue       : mkvmerge v10.0.0 ('To Drown In You') 64bit 2017-10-21 19:52:33 / mkvmerge v10.0.0 ('To Drown In You') 64bit 2017-10-21 19:52:33 / UTC 2017-10-21T18:34:44Z
    FromStats_BitRate           : 28
    FromStats_Duration          : 02:01:22.553000000
    FromStats_FrameCount        : 823
    FromStats_StreamSize        : 26011

    Menu
    00:00:00.000                : :00:00:00.000
    00:05:20.695                : :00:05:20.695
    00:11:44.245                : :00:11:44.245
    00:19:25.790                : :00:19:25.790
    00:26:51.193                : :00:26:51.193
    00:31:57.249                : :00:31:57.249
    00:38:45.240                : :00:38:45.240
    00:44:57.111                : :00:44:57.111
    00:49:30.509                : :00:49:30.509
    00:56:46.528                : :00:56:46.528
    01:04:52.722                : :01:04:52.722
    01:11:45.635                : :01:11:45.635
    01:16:17.531                : :01:16:17.531
    01:24:38.407                : :01:24:38.240
    01:31:05.251                : :01:31:05.251
    01:34:57.108                : :01:34:57.108
    01:44:31.974                : :01:44:31.974
    01:50:06.475                : :01:50:06.350
    01:56:02.831                : :01:56:02.789
    01:59:57.607                : :01:59:57.440

  • Peso: 3.75 GB

Sinopsis

Dos triángulos amorosos interrelacionados, la de las parejas formadas por los compositores Faye (Rooney Mara) y BV (Ryan Gosling), y la del productor musical Cook (Michael Fassbender) y su novia camarera (Natalie Portman), persiguiendo todos el éxito mientras tropiezan con la obsesión y la traición en el mundo de la escena musical de Austin, Texas.

Ficha técnica

Video trailer de la película

Enlaces de descarga

Rip de Bluray

Descargar Song to Song (2017) 1080p Latino




Aportes de DPeliculasHDmega la pass es:dpeliculashdmega.org Aportes de CinemaniaHD la pass es:cinemaniahdd.com
Guardado en : Drama , Música , Romance

Películas relacionadas

  • Native Son (2019) AMZN WEB-DL 1080p Latino

    2019
    Native Son (2019) AMZN WEB-DL 1080p Latino

    4.0 1h 50m 2019

    Bigger “Big” Thomas (Ashton Sanders) es un joven afroamericano que vive con su madre y hermanos en...

    Director: Rashid Johnson

    Género: Drama

    Actores: Stephen Henderson

  • Dragged Across Concrete (2018) WEB-DL Latino

    2019
    Dragged Across Concrete (2018) WEB-DL Latino

    0.0 2h 39m 2019

    Las películas de S. Craig Zahler se cuecen a fuego lento. Sin embargo, su carrera es fulgurante: ya...

    Director: Sam Harris

    Género: Acción

    Actores: Vivian Ng

  • Miss Bala (2019) WEB-DL 1080p Latino

    2019
    Miss Bala (2019) WEB-DL 1080p Latino

    0.0 1h 44m 2019

    La ganadora de un concurso de belleza se ve obligada a trabajar para un jefe del crimen después de ser...

    Director: Catherine Hardwicke

    Género: Acción

    Actores: Roberto Sosa

  • Amigos por Siempre (2019) WEB-DL 1080p Latino

    2019
    Amigos por Siempre (2019) WEB-DL 1080p Latino

    0.0 2h 3m 2019

    Remake norteamericano del gran éxito del cine francés "Intocable" (2011), que aborda la relación que...

    Director: Neil Burger

    Género: Comedia

    Actores: Ursula Triplett

Comentarios 0