×

¿Problemas para descargar con Mozilla, EDGE? Deshabilita la opción "Abrir vinculos en una pestaña nueva" tal como lo muestra ésta imagen.

Something from Tiffany’s (2022) AMZN WEB-DL 1080p Latino

248 vistas

Información de Something from Tiffany’s (2022) AMZN WEB-DL 1080p Latino

Datos de la película

  • Calidad: 1080p
  • Audio: Español Latino AC3 5.1 WEB-DL - Ingles AC3 5.1 WEB-DL
  • Subtitulos: Español Latino SRT- FORZADOS SRT
  • Resolución: 1920x1080
  • Formato: MKV
  • Codec: H.264
  • Encoder: cinemaniahdd
  • Mediainfo: Clic para Mostrar Datos Ver
  • Something From Tiffanys (2022) AMZN WEB-DL 1080p Latino [CNMNHDD].mkv
    Format                      : Matroska
    Format version              : Version 4
    File size                   : 7.00 GiB
    Duration                    : 1 h 27 min
    Overall bit rate            : 11.4 Mb/s
    Movie name                  : Something From Tiffanys (2022) [1080p] - CinemaniaHDD.Net
    Encoded date                : UTC 2022-12-09 00:53:12
    Writing application         : mkvmerge v56.1.0 ('My Friend') 64-bit
    Writing library             : libebml v1.4.2 + libmatroska v1.6.4

    Video
    ID                          : 1
    Format                      : AVC
    Format/Info                 : Advanced Video Codec
    Format profile              : High@L4
    Format settings             : CABAC / 4 Ref Frames
    Format settings, CABAC      : Yes
    Format settings, Reference  : 4 frames
    Codec ID                    : V_MPEG4/ISO/AVC
    Duration                    : 1 h 27 min
    Bit rate mode               : Constant
    Bit rate                    : 9 502 kb/s
    Nominal bit rate            : 10 000 kb/s
    Width                       : 1 920 pixels
    Height                      : 800 pixels
    Display aspect ratio        : 2.40:1
    Frame rate mode             : Constant
    Frame rate                  : 23.976 (24000/1001) FPS
    Color space                 : YUV
    Chroma subsampling          : 4:2:0
    Bit depth                   : 8 bits
    Scan type                   : Progressive
    Bits/(Pixel*Frame)          : 0.258
    Stream size                 : 5.82 GiB (83%)
    Title                       : CinemaniaHDD
    Default                     : Yes
    Forced                      : No
    Color range                 : Limited
    Color primaries             : BT.709
    Transfer characteristics    : BT.709
    Matrix coefficients         : BT.709

    Audio #1
    ID                          : 2
    Format                      : AC-3
    Format/Info                 : Audio Coding 3
    Commercial name             : Dolby Digital
    Codec ID                    : A_AC3
    Duration                    : 1 h 27 min
    Bit rate mode               : Constant
    Bit rate                    : 640 kb/s
    Channel(s)                  : 6 channels
    Channel layout              : L R C LFE Ls Rs
    Sampling rate               : 48.0 kHz
    Frame rate                  : 31.250 FPS (1536 SPF)
    Compression mode            : Lossy
    Stream size                 : 402 MiB (6%)
    Title                       : Español latino [CinemaniaHDD]
    Language                    : Spanish
    Service kind                : Complete Main
    Default                     : Yes
    Forced                      : No

    Audio #2
    ID                          : 3
    Format                      : E-AC-3
    Format/Info                 : Enhanced AC-3
    Commercial name             : Dolby Digital Plus
    Codec ID                    : A_EAC3
    Duration                    : 1 h 27 min
    Bit rate mode               : Constant
    Bit rate                    : 640 kb/s
    Channel(s)                  : 6 channels
    Channel layout              : L R C LFE Ls Rs
    Sampling rate               : 48.0 kHz
    Frame rate                  : 31.250 FPS (1536 SPF)
    Compression mode            : Lossy
    Stream size                 : 402 MiB (6%)
    Title                       : Español latino / E-AC3 [CinemaniaHDD]
    Language                    : Spanish
    Service kind                : Complete Main
    Default                     : No
    Forced                      : No

    Audio #3
    ID                          : 4
    Format                      : E-AC-3
    Format/Info                 : Enhanced AC-3
    Commercial name             : Dolby Digital Plus
    Codec ID                    : A_EAC3
    Duration                    : 1 h 27 min
    Bit rate mode               : Constant
    Bit rate                    : 640 kb/s
    Channel(s)                  : 6 channels
    Channel layout              : L R C LFE Ls Rs
    Sampling rate               : 48.0 kHz
    Frame rate                  : 31.250 FPS (1536 SPF)
    Compression mode            : Lossy
    Stream size                 : 402 MiB (6%)
    Title                       : Inglés [CinemaniaHDD]
    Language                    : English
    Service kind                : Complete Main
    Default                     : No
    Forced                      : No

    Text #1
    ID                          : 5
    Format                      : UTF-8
    Codec ID                    : S_TEXT/UTF8
    Codec ID/Info               : UTF-8 Plain Text
    Duration                    : 1 h 22 min
    Bit rate                    : 0 b/s
    Count of elements           : 20
    Stream size                 : 472 Bytes (0%)
    Title                       : Forzados [CinemaniaHDD]
    Language                    : Spanish
    Default                     : Yes
    Forced                      : No

    Text #2
    ID                          : 6
    Format                      : UTF-8
    Codec ID                    : S_TEXT/UTF8
    Codec ID/Info               : UTF-8 Plain Text
    Duration                    : 1 h 26 min
    Bit rate                    : 68 b/s
    Count of elements           : 1419
    Stream size                 : 43.6 KiB (0%)
    Title                       : Español latino [CinemaniaHDD]
    Language                    : Spanish
    Default                     : No
    Forced                      : No

    Text #3
    ID                          : 7
    Format                      : UTF-8
    Codec ID                    : S_TEXT/UTF8
    Codec ID/Info               : UTF-8 Plain Text
    Duration                    : 1 h 27 min
    Bit rate                    : 89 b/s
    Count of elements           : 1764
    Stream size                 : 56.7 KiB (0%)
    Title                       : Inglés [CinemaniaHDD]
    Language                    : English
    Default                     : No
    Forced                      : No

     

  • Peso: 7.00 GiB

Sinopsis

La vida, así como el amor, está llena de sorpresas y regalos inesperados. En el romance navideño “Algo de Tiffany“, la vida de una mujer cambia para siempre cuando recibe un anillo de compromiso que estaba destinado a otra persona.

Ficha técnica

  • Titulo original: Something from Tiffany's
  • Fecha de lanzamiento: 29-11-2022 (United States of America)
  • Director: Daryl Wein
  • Género: Comedia, Romance

Video trailer de la película

Enlaces de descarga

Rip de Bluray

Descargar Something from Tiffany’s (2022) AMZN WEB-DL 1080p Latino




Aportes de DPeliculasHDmega la pass es:dpeliculashdmega.org Aportes de CinemaniaHD la pass es:cinemaniahdd.com Aportes recientes:cinemaniahdd.net
Guardado en : Comedia , Romance

Películas relacionadas

  • Elementos (2023) PLACEBO Full HD 1080p Latino

    Elementos (2023) PLACEBO Full HD 1080p Latino

    2023
    Elementos (2023) PLACEBO Full HD 1080p Latino

    1h 42m 2023

    Descargar Elementos (2023) PLACEBO Full HD 1080p Latino. En una ciudad donde los residentes del fuego,...

    Director: Peter Sohn

    Género: Animación

    Actores: Wilma Bonet

  • Elementos (2023) HD 1080p Latino

    Elementos (2023) HD 1080p Latino

    2023
    Elementos (2023) HD 1080p Latino

    1h 42m 2023

    Descargar Elemental (2023) HD 1080p Latino. En una ciudad donde los residentes del fuego, el agua, la...

    Director: Peter Sohn

    Género: Animación

    Actores: Wilma Bonet

  • Elementos (2023) REMUX 1080p Latino

    Elementos (2023) REMUX 1080p Latino

    2023
    Elementos (2023) REMUX 1080p Latino

    1h 42m 2023

    Descargar Elementos (2023) REMUX 1080p Latino. En una ciudad donde los residentes del fuego, el agua,...

    Director: Peter Sohn

    Género: Animación

    Actores: Wilma Bonet

descargar Something from Tiffany’s (2022) AMZN WEB-DL 1080p Latino 1080p 1080p gratis, Something from Tiffany’s (2022) AMZN WEB-DL 1080p Latino 1080p mega 1 link, Something from Tiffany’s (2022) AMZN WEB-DL 1080p Latino 1080p pelicula completa, descargar Something from Tiffany’s (2022) AMZN WEB-DL 1080p Latino 1080p gratis en mega.

Something from Tiffany’s (2022) AMZN WEB-DL 1080p Latino pelicula full hd, Something from Tiffany’s (2022) AMZN WEB-DL 1080p Latino mega latino, Something from Tiffany’s (2022) AMZN WEB-DL 1080p Latino 4k latino, Something from Tiffany’s (2022) AMZN WEB-DL 1080p Latino pelicula completa, Something from Tiffany’s (2022) AMZN WEB-DL 1080p Latino descargar gratis, descargar Something from Tiffany’s (2022) AMZN WEB-DL 1080p Latino pelicula latino, Something from Tiffany’s (2022) AMZN WEB-DL 1080p Latino 1 link mega, Something from Tiffany’s (2022) AMZN WEB-DL 1080p Latino 1 link google drive, Something from Tiffany’s (2022) AMZN WEB-DL 1080p Latino hd 1080p latino.
Comentarios 0