×

¿Problemas para descargar con Mozilla, EDGE? Deshabilita la opción "Abrir vinculos en una pestaña nueva" tal como lo muestra ésta imagen.

Sombra y hueso (2021) Temporada 1 NF WEB-DL 1080p Latino

587 vistas

Información de Sombra y hueso (2021) Temporada 1 NF WEB-DL 1080p Latino

Datos de la película

  • Calidad: WEBDL
  • Audio: Español Latino E-AC3 5.1 Netflix - Ingles E-AC3 5.1 Netflix
  • Subtitulos: Español Latino SRT- FORZADOS SRT
  • Resolución: 1920x1080p
  • Formato: MKV
  • Codec: H.264
  • Encoder: Melkor
  • Mediainfo: Clic para Mostrar Datos Ver
  • Sombra Y Hueso S01E01 (2021) REPACK NF WEB-DL 1080p Latino.mkv
    Format                      : Matroska
    Format version              : Version 4
    File size                   : 1.19 GiB
    Duration                    : 52 min 19 s
    Overall bit rate mode       : Variable
    Overall bit rate            : 3 245 kb/s
    Movie name                  : Shadow.and.Bone.S01E01 - A.Searing.Burst.of.Light CinemaniaHDD.Net
    Encoded date                : UTC 2023-03-20 00:36:04
    Writing application         : mkvmerge v56.1.0 ('My Friend') 64-bit
    Writing library             : libebml v1.4.2 + libmatroska v1.6.4
    Attachments                 : CINEMANIAHD.png / CINEMANIAHD.png
    Site                        : CinemaniaHDD.Net
    Uploader                    : Melkor

    Video
    ID                          : 1
    Format                      : AVC
    Format/Info                 : Advanced Video Codec
    Format profile              : Main@L4
    Format settings             : CABAC / 3 Ref Frames
    Format settings, CABAC      : Yes
    Format settings, Reference  : 3 frames
    Codec ID                    : V_MPEG4/ISO/AVC
    Duration                    : 52 min 19 s
    Bit rate mode               : Variable
    Bit rate                    : 1 835 kb/s
    Nominal bit rate            : 2 204 kb/s
    Maximum bit rate            : 3 915 kb/s
    Width                       : 1 920 pixels
    Height                      : 1 080 pixels
    Display aspect ratio        : 16:9
    Frame rate mode             : Constant
    Frame rate                  : 23.976 (24000/1001) FPS
    Color space                 : YUV
    Chroma subsampling          : 4:2:0
    Bit depth                   : 8 bits
    Scan type                   : Progressive
    Bits/(Pixel*Frame)          : 0.037
    Stream size                 : 687 MiB (57%)
    Title                       : WEB HD1080p [CinemaniaHDD]
    Writing library             : x264 core 148 r2722 1b0121b
    Encoding settings           : cabac=1 / ref=3 / deblock=1:0:0 / analyse=0x1:0x111 / me=umh / subme=10 / psy=1 / psy_rd=1.00:0.00 / mixed_ref=1 / me_range=24 / chroma_me=1 / trellis=2 / 8x8dct=0 / cqm=0 / deadzone=21,11 / fast_pskip=1 / chroma_qp_offset=-2 / threads=6 / lookahead_threads=1 / sliced_threads=0 / nr=0 / decimate=1 / interlaced=0 / bluray_compat=0 / stitchable=1 / constrained_intra=0 / bframes=2 / b_pyramid=0 / b_adapt=2 / b_bias=0 / direct=3 / weightb=1 / open_gop=0 / weightp=2 / keyint=250 / keyint_min=23 / scenecut=0 / intra_refresh=0 / rc_lookahead=48 / rc=2pass / mbtree=1 / bitrate=2204 / ratetol=1.0 / qcomp=0.50 / qpmin=6 / qpmax=51 / qpstep=4 / cplxblur=20.0 / qblur=0.5 / vbv_maxrate=3915 / vbv_bufsize=5220 / nal_hrd=vbr / filler=0 / ip_ratio=1.40 / aq=1:1.00
    Default                     : Yes
    Forced                      : No

    Audio #1
    ID                          : 2
    Format                      : E-AC-3
    Format/Info                 : Enhanced AC-3
    Commercial name             : Dolby Digital Plus
    Codec ID                    : A_EAC3
    Duration                    : 52 min 19 s
    Bit rate mode               : Constant
    Bit rate                    : 640 kb/s
    Channel(s)                  : 6 channels
    Channel layout              : L R C LFE Ls Rs
    Sampling rate               : 48.0 kHz
    Frame rate                  : 31.250 FPS (1536 SPF)
    Compression mode            : Lossy
    Stream size                 : 240 MiB (20%)
    Title                       : Español Latino [CinemaniaHDD]
    Language                    : Spanish
    Service kind                : Complete Main
    Default                     : Yes
    Forced                      : Yes

    Audio #2
    ID                          : 3
    Format                      : E-AC-3 JOC
    Format/Info                 : Enhanced AC-3 with Joint Object Coding
    Commercial name             : Dolby Digital Plus with Dolby Atmos
    Codec ID                    : A_EAC3
    Duration                    : 52 min 19 s
    Bit rate mode               : Constant
    Bit rate                    : 768 kb/s
    Channel(s)                  : 6 channels
    Channel layout              : L R C LFE Ls Rs
    Sampling rate               : 48.0 kHz
    Frame rate                  : 31.250 FPS (1536 SPF)
    Compression mode            : Lossy
    Stream size                 : 287 MiB (24%)
    Title                       : Ingles [CinemaniaHDD]
    Language                    : English
    Service kind                : Complete Main
    Default                     : No
    Forced                      : No
    Complexity index            : 16
    Number of dynamic objects   : 15
    Bed channel count           : 1 channel
    Bed channel configuration   : LFE

    Text #1
    ID                          : 4
    Format                      : UTF-8
    Codec ID                    : S_TEXT/UTF8
    Codec ID/Info               : UTF-8 Plain Text
    Duration                    : 50 min 22 s
    Bit rate                    : 0 b/s
    Count of elements           : 6
    Stream size                 : 170 Bytes (0%)
    Title                       : Forzados-SRT [CinemaniaHDD]
    Language                    : Spanish
    Default                     : Yes
    Forced                      : Yes

    Text #2
    ID                          : 5
    Format                      : UTF-8
    Codec ID                    : S_TEXT/UTF8
    Codec ID/Info               : UTF-8 Plain Text
    Duration                    : 50 min 23 s
    Bit rate                    : 47 b/s
    Count of elements           : 590
    Stream size                 : 17.5 KiB (0%)
    Title                       : Español-SRT [CinemaniaHDD]
    Language                    : Spanish
    Default                     : No
    Forced                      : No

    Text #3
    ID                          : 6
    Format                      : UTF-8
    Codec ID                    : S_TEXT/UTF8
    Codec ID/Info               : UTF-8 Plain Text
    Duration                    : 46 min 6 s
    Bit rate                    : 62 b/s
    Count of elements           : 673
    Stream size                 : 21.2 KiB (0%)
    Title                       : Ingles-SRT [CinemaniaHDD]
    Language                    : English
    Default                     : No
    Forced                      : No

     

  • Peso: 1.7 GiB Aprox C/U -- 10 GiB -- 8 Chapters

Sinopsis

Descargar Sombra y hueso (2021) Temporada 1 NF WEB-DL 1080p Latino. Fuerzas oscuras conspiran contra Alina Starkov, una cartógrafa huérfana con un poder extraordinario que podría cambiar el destino de su devastado mundo.

RESUBIDO
CAPITULO S01E01 CORREGIDO!!!

Ficha técnica

Video trailer de la película

Enlaces de descarga

Rip de Bluray

Descargar Sombra y hueso (2021) Temporada 1 NF WEB-DL 1080p Latino




Aportes de DPeliculasHDmega la pass es:dpeliculashdmega.org Aportes de CinemaniaHD la pass es:cinemaniahdd.com Aportes recientes:cinemaniahdd.net
Guardado en : Netflix , Sci-Fi & Fantasy , Series

Películas relacionadas

descargar Sombra y hueso (2021) Temporada 1 NF WEB-DL 1080p Latino WEBDL 1080p gratis, Sombra y hueso (2021) Temporada 1 NF WEB-DL 1080p Latino WEBDL mega 1 link, Sombra y hueso (2021) Temporada 1 NF WEB-DL 1080p Latino WEBDL serie completa, descargar Sombra y hueso (2021) Temporada 1 NF WEB-DL 1080p Latino WEBDL gratis en mega.

Sombra y hueso (2021) Temporada 1 NF WEB-DL 1080p Latino pelicula full hd, Sombra y hueso (2021) Temporada 1 NF WEB-DL 1080p Latino mega latino, Sombra y hueso (2021) Temporada 1 NF WEB-DL 1080p Latino 4k latino, Sombra y hueso (2021) Temporada 1 NF WEB-DL 1080p Latino pelicula completa, Sombra y hueso (2021) Temporada 1 NF WEB-DL 1080p Latino descargar gratis, descargar Sombra y hueso (2021) Temporada 1 NF WEB-DL 1080p Latino pelicula latino, Sombra y hueso (2021) Temporada 1 NF WEB-DL 1080p Latino 1 link mega, Sombra y hueso (2021) Temporada 1 NF WEB-DL 1080p Latino 1 link google drive, Sombra y hueso (2021) Temporada 1 NF WEB-DL 1080p Latino hd 1080p latino.
Comentarios 0