Solterísima (2020) NF WEB-DL 1080p Latino

10 vistas
1 estrella2 estrellas3 estrellas4 estrellas5 estrellas (1 votos, promedio: 5,00 de 5)
Cargando…

Información de Solterísima (2020) NF WEB-DL 1080p Latino

Datos de la película

  • Calidad: WEBDL
  • Audio: Español Latino AC3 5.1 Netflix - Ingles AC3 5.1 Netflix
  • Subtitulos: Español Latino SRT- FORZADOS SRT
  • Resolución: 1920x1080
  • Formato: MKV
  • Codec: H.264
  • Encoder: cinemaniahdd
  • Mediainfo: Clic para Mostrar Datos Ver
  • Solterísima (2020) NF WEB-DL 1080p Latino [CNMNHDD].mkv
    Format                      : Matroska
    Format version              : Version 4
    File size                   : 3.90 GiB
    Duration                    : 1 h 47 min
    Overall bit rate mode       : Variable
    Overall bit rate            : 5 173 kb/s
    Movie name                  : Solterísima (2020) - CinemaniaHDD.Net
    Encoded date                : UTC 2020-07-31 07:26:11
    Writing application         : mkvmerge v30.1.0 ('Forever And More') 64-bit
    Writing library             : libebml v1.3.6 + libmatroska v1.4.9 / Lavf58.28.101

    Video
    ID                          : 1
    Format                      : AVC
    Format/Info                 : Advanced Video Codec
    Format profile              : Main@L4
    Format settings             : CABAC / 3 Ref Frames
    Format settings, CABAC      : Yes
    Format settings, Reference  : 3 frames
    Codec ID                    : V_MPEG4/ISO/AVC
    Duration                    : 1 h 47 min
    Bit rate mode               : Variable
    Bit rate                    : 4 420 kb/s
    Maximum bit rate            : 6 630 kb/s
    Width                       : 1 920 pixels
    Height                      : 1 080 pixels
    Display aspect ratio        : 16:9
    Frame rate mode             : Constant
    Frame rate                  : 24.000 FPS
    Color space                 : YUV
    Chroma subsampling          : 4:2:0
    Bit depth                   : 8 bits
    Scan type                   : Progressive
    Bits/(Pixel*Frame)          : 0.089
    Stream size                 : 3.31 GiB (85%)
    Title                       : CinemaniaHDD.Net
    Writing library             : x264 core 148 r2721 6d200cf
    Encoding settings           : cabac=1 / ref=3 / deblock=1:0:0 / analyse=0x1:0x111 / me=umh / subme=10 / psy=1 / psy_rd=1.00:0.00 / mixed_ref=1 / me_range=24 / chroma_me=1 / trellis=2 / 8x8dct=0 / cqm=0 / deadzone=21,11 / fast_pskip=1 / chroma_qp_offset=-2 / threads=6 / lookahead_threads=1 / sliced_threads=0 / nr=0 / decimate=1 / interlaced=0 / bluray_compat=0 / stitchable=1 / constrained_intra=0 / bframes=2 / b_pyramid=0 / b_adapt=2 / b_bias=0 / direct=3 / weightb=1 / open_gop=0 / weightp=2 / keyint=250 / keyint_min=24 / scenecut=0 / intra_refresh=0 / rc_lookahead=48 / rc=2pass / mbtree=1 / bitrate=4420 / ratetol=1.0 / qcomp=0.50 / qpmin=6 / qpmax=51 / qpstep=4 / cplxblur=20.0 / qblur=0.5 / vbv_maxrate=6630 / vbv_bufsize=8840 / nal_hrd=vbr / filler=0 / ip_ratio=1.40 / aq=1:1.00
    Default                     : Yes
    Forced                      : No

    Audio #1
    ID                          : 2
    Format                      : AC-3
    Format/Info                 : Audio Coding 3
    Commercial name             : Dolby Digital
    Codec ID                    : A_AC3
    Duration                    : 1 h 47 min
    Bit rate mode               : Constant
    Bit rate                    : 384 kb/s
    Channel(s)                  : 6 channels
    Channel layout              : L R C LFE Ls Rs
    Sampling rate               : 48.0 kHz
    Frame rate                  : 31.250 FPS (1536 SPF)
    Compression mode            : Lossy
    Stream size                 : 296 MiB (7%)
    Title                       : Español latino [CinemaniaHDD]
    Language                    : Spanish
    Service kind                : Complete Main
    Default                     : Yes
    Forced                      : No

    Audio #2
    ID                          : 3
    Format                      : AC-3
    Format/Info                 : Audio Coding 3
    Commercial name             : Dolby Digital
    Codec ID                    : A_AC3
    Duration                    : 1 h 47 min
    Bit rate mode               : Constant
    Bit rate                    : 384 kb/s
    Channel(s)                  : 6 channels
    Channel layout              : L R C LFE Ls Rs
    Sampling rate               : 48.0 kHz
    Frame rate                  : 31.250 FPS (1536 SPF)
    Compression mode            : Lossy
    Stream size                 : 296 MiB (7%)
    Title                       : Inglés [CinemaniaHDD]
    Language                    : English
    Service kind                : Complete Main
    Default                     : No
    Forced                      : No

  • Peso: 3.90 GiB

Sinopsis

Su autoindulgente amiga íntima insiste en que aproveche la soltería, pero esta experta en redes sociales ansiosa por comprometerse no le pierde pisada a un antiguo amor.

Ficha técnica

Video trailer de la película

Enlaces de descarga

Rip de Bluray

Descargar Solterísima (2020) NF WEB-DL 1080p Latino




Aportes de DPeliculasHDmega la pass es:dpeliculashdmega.org Aportes de CinemaniaHD la pass es:cinemaniahdd.com
Guardado en : Comedia , Netflix

Películas relacionadas

  • Bolt (2008) HD 1080p Latino – CMHDD

    Bolt (2008) HD 1080p Latino – CMHDD

    2008
    Bolt (2008) HD 1080p Latino – CMHDD

    0.0 1h 36m 2008

    Para el super-perro Bolt todos los días están llenos de aventuras, peligros e intriga -al menos hasta...

    Director: William Otsuka

    Género: Animación

    Actores: Todd Cummings

  • Bolt (2008) Full HD 1080p Latino – CMHDD

    Bolt (2008) Full HD 1080p Latino – CMHDD

    2008
    Bolt (2008) Full HD 1080p Latino – CMHDD

    0.0 1h 36m 2008

    Para el super-perro Bolt todos los días están llenos de aventuras, peligros e intriga -al menos hasta...

    Director: William Otsuka

    Género: Animación

    Actores: Todd Cummings

  • Bolt (2008) REMUX 1080p Latino – CMHDD

    Bolt (2008) REMUX 1080p Latino – CMHDD

    2008
    Bolt (2008) REMUX 1080p Latino – CMHDD

    0.0 1h 36m 2008

    Para el super-perro Bolt todos los días están llenos de aventuras, peligros e intriga -al menos hasta...

    Director: William Otsuka

    Género: Animación

    Actores: Todd Cummings

Comentarios 0