Solo (2018) NF 1080p Español Latino

982 vistas
1 estrella2 estrellas3 estrellas4 estrellas5 estrellas (Ninguna valoración todavía)
Cargando…

Información de Solo (2018) NF 1080p Español Latino

Datos de la película

  • Calidad: WEBDL
  • Audio: Español España AC3 5.1 Netflix
  • Subtitulos: Español Latino SRT - Ingles SRT
  • Resolución: 1920x1080
  • Formato: MKV
  • Codec: H.264
  • Encoder: cinemaniahd
  • Mediainfo: Clic para Mostrar Datos Ver
  • Solo (2018) NF 1080p Español España.mkv
    Format                      : Matroska
    Format version              : Version 4
    File size                   : 4.32 GiB
    Duration                    : 1 h 30 min
    Overall bit rate mode       : Variable
    Overall bit rate            : 6 791 kb/s
    Movie name                  : CinemaniaHDD.net
    Encoded date                : UTC 2019-01-11 08:41:02
    Writing application         : mkvmerge v29.0.0 ('Like It Or Not') 64-bit
    Writing library             : libebml v1.3.6 + libmatroska v1.4.9

    Video
    ID                          : 1
    Format                      : AVC
    Format/Info                 : Advanced Video Codec
    Format profile              : [email protected]
    Format settings             : CABAC / 3 Ref Frames
    Format settings, CABAC      : Yes
    Format settings, ReFrames   : 3 frames
    Codec ID                    : V_MPEG4/ISO/AVC
    Duration                    : 1 h 30 min
    Bit rate mode               : Variable
    Bit rate                    : 6 490 kb/s
    Maximum bit rate            : 9 735 kb/s
    Width                       : 1 920 pixels
    Height                      : 1 080 pixels
    Display aspect ratio        : 16:9
    Frame rate mode             : Constant
    Frame rate                  : 24.000 FPS
    Color space                 : YUV
    Chroma subsampling          : 4:2:0
    Bit depth                   : 8 bits
    Scan type                   : Progressive
    Bits/(Pixel*Frame)          : 0.130
    Stream size                 : 4.07 GiB (94%)
    Writing library             : x264 core 148 r2715 7e75228
    Encoding settings           : cabac=1 / ref=3 / deblock=1:0:0 / analyse=0x1:0x111 / me=umh / subme=10 / psy=1 / psy_rd=1.00:0.00 / mixed_ref=1 / me_range=24 / chroma_me=1 / trellis=2 / 8x8dct=0 / cqm=0 / deadzone=21,11 / fast_pskip=1 / chroma_qp_offset=-2 / threads=8 / lookahead_threads=1 / sliced_threads=0 / nr=0 / decimate=1 / interlaced=0 / bluray_compat=0 / stitchable=1 / constrained_intra=0 / bframes=2 / b_pyramid=0 / b_adapt=2 / b_bias=0 / direct=3 / weightb=1 / open_gop=0 / weightp=2 / keyint=48 / keyint_min=25 / scenecut=0 / intra_refresh=0 / rc_lookahead=48 / rc=2pass / mbtree=1 / bitrate=6490 / ratetol=1.0 / qcomp=0.50 / qpmin=6 / qpmax=51 / qpstep=4 / cplxblur=20.0 / qblur=0.5 / vbv_maxrate=9735 / vbv_bufsize=12980 / nal_hrd=vbr / filler=0 / ip_ratio=1.40 / aq=1:1.00
    Default                     : Yes
    Forced                      : No

    Audio
    ID                          : 2
    Format                      : AC-3
    Format/Info                 : Audio Coding 3
    Commercial name             : Dolby Digital
    Codec ID                    : A_AC3
    Duration                    : 1 h 30 min
    Bit rate mode               : Constant
    Bit rate                    : 384 kb/s
    Channel(s)                  : 6 channels
    Channel layout              : L R C LFE Ls Rs
    Sampling rate               : 48.0 kHz
    Frame rate                  : 31.250 FPS (1536 SPF)
    Bit depth                   : 16 bits
    Compression mode            : Lossy
    Stream size                 : 250 MiB (6%)
    Service kind                : Complete Main
    Default                     : Yes
    Forced                      : No

    Text #1
    ID                          : 3
    Format                      : UTF-8
    Codec ID                    : S_TEXT/UTF8
    Codec ID/Info               : UTF-8 Plain Text
    Duration                    : 1 h 20 min
    Bit rate                    : 19 b/s
    Count of elements           : 395
    Stream size                 : 11.3 KiB (0%)
    Title                       : Spanish
    Language                    : Spanish
    Default                     : No
    Forced                      : No

    Text #2
    ID                          : 4
    Format                      : UTF-8
    Codec ID                    : S_TEXT/UTF8
    Codec ID/Info               : UTF-8 Plain Text
    Duration                    : 1 h 20 min
    Bit rate                    : 20 b/s
    Count of elements           : 400
    Stream size                 : 12.1 KiB (0%)
    Title                       : European Spanish
    Language                    : Spanish
    Default                     : No
    Forced                      : No

    Text #3
    ID                          : 5
    Format                      : UTF-8
    Codec ID                    : S_TEXT/UTF8
    Codec ID/Info               : UTF-8 Plain Text
    Duration                    : 1 h 30 min
    Bit rate                    : 15 b/s
    Count of elements           : 424
    Stream size                 : 10.6 KiB (0%)
    Title                       : English
    Language                    : English
    Default                     : Yes
    Forced                      : Yes

  • Peso: 4.32 GiB

Sinopsis

Tras caer por un acantilado y sufrir importantes heridas, un joven surfista deberá enfrentarse durante 48 horas a una naturaleza implacable y a su propia agonía física y mental para intentar sobrevivir.

Ficha técnica

Video trailer de la película

Enlaces de descarga

Rip de Bluray

Descargar Solo (2018) NF 1080p Español Latino




Aportes de DPeliculasHDmega la pass es:dpeliculashdmega.org Aportes de CinemaniaHD la pass es:cinemaniahdd.com
Guardado en : Peliculas Netflix , Suspense

Películas relacionadas

  • Halloween (2018) Full 1080p Latino

    2018
    Halloween (2018) Full 1080p Latino

    4.7 2h 0m 2018

    Descargar Halloween (2018) Full 1080p Latino, Mega, Google Drive, Torrent. Jamie Lee Curtis regresa a...

    Director: David Gordon Green

    Género: FULL 1080p Plateadas

    Actores: Willie Tyrone Ferguson

  • The Last Laugh (2019) NF 1080p Español Latino

    2019
    The Last Laugh (2019) NF 1080p Español Latino

    2.0 1h 38m 2019

    Después de mudarse a una casa de retiro, el inquieto gerente de talentos Al se vuelve a conectar con...

    Director: Greg Pritikin

    Género: Comedia

    Actores: Richard Dreyfuss

  • Frenzy (2018) 1080p Subtitulado

    2018
    Frenzy (2018) 1080p Subtitulado

    0.0 1h 25m 2018

    Descargar Frenzy (2018) 1080p Subtitulado, Mega, Google Drive, Torrent. Paige (Gina Vitori) invita a...

    Director: Jose Montesinos

    Género: HD 1080p

    Actores: Taylor Jorgensen

  • El Potro (2018) NF 1080p Latino

    2018
    El Potro (2018) NF 1080p Latino

    0.0 2h 2m 2018

    El sueño de Rodrigo siempre ha sido cantar. Sus padres lo acompañan en su deseo y Rodrigo ingresa en...

    Director: Lorena Muñoz

    Género: Drama

    Actores: Rodrigo Romero

Comentarios 0