×

¿Problemas para descargar con Mozilla, EDGE? Deshabilita la opción "Abrir vinculos en una pestaña nueva" tal como lo muestra ésta imagen.

Sola Contra El Poder (2016) 1080p Latino

1.961 vistas

Información de Sola Contra El Poder (2016) 1080p Latino

sola contra el poder

Datos de la película

  • Calidad: 1080p
  • Audio: Español Latino AC3 2.0 iTUNES - Ingles AC3 5.1 BLURAY
  • Subtitulos: Español Latino SRT- FORZADOS SRT
  • Resolución: 1920X804
  • Formato: MKV
  • Codec: H.264
  • Encoder: Dracarys
  • Mediainfo: Clic para Mostrar Datos Ver
  • Format                                   : Matroska
    Format version                           : Version 4 / Version 2
    File size                                : 3.74 GiB
    Duration                                 : 2 h 12 min
    Overall bit rate                         : 4 048 kb/s
    Movie name                               : CinemaniaHDD.com
    Encoded date                             : UTC 2017-12-06 20:05:13 / UTC 2017-12-06T18:35:32Z
    Writing application                      : mkvmerge v15.0.0 ('Duel with the Devil') 64-bit
    Writing library                          : libebml v1.3.5 + libmatroska v1.4.5 / Lavf57.7.2

    Video
    ID                                       : 1
    Format                                   : AVC
    Format/Info                              : Advanced Video Codec
    Format profile                           : High@L4.1
    Format settings                          : CABAC / 5 Ref Frames
    Format settings, CABAC                   : Yes
    Format settings, RefFrames               : 5 frames
    Codec ID                                 : V_MPEG4/ISO/AVC
    Duration                                 : 2 h 12 min
    Bit rate                                 : 3 500 kb/s
    Width                                    : 1 920 pixels
    Height                                   : 804 pixels
    Display aspect ratio                     : 2.40:1
    Frame rate mode                          : Constant
    Frame rate                               : 23.976 (24000/1001) FPS
    Color space                              : YUV
    Chroma subsampling                       : 4:2:0
    Bit depth                                : 8 bits
    Scan type                                : Progressive
    Bits/(Pixel*Frame)                       : 0.095
    Stream size                              : 3.13 GiB (84%)
    Title                                    : Sola Contra El Poder (2016) 1080p Latino
    Writing library                          : x264 core 148 r2708 86b7198
    Encoding settings                        : cabac=1 / ref=5 / deblock=1:0:0 / analyse=0x3:0x113 / me=umh / subme=8 / psy=1 / psy_rd=1.00:0.00 / mixed_ref=1 / me_range=16 / chroma_me=1 / trellis=1 / 8x8dct=1 / cqm=0 / deadzone=21,11 / fast_pskip=1 / chroma_qp_offset=-2 / threads=25 / lookahead_threads=4 / sliced_threads=0 / nr=0 / decimate=1 / interlaced=0 / bluray_compat=0 / constrained_intra=0 / bframes=3 / b_pyramid=2 / b_adapt=2 / b_bias=0 / direct=3 / weightb=1 / open_gop=0 / weightp=2 / keyint=240 / keyint_min=24 / scenecut=40 / intra_refresh=0 / rc_lookahead=50 / rc=abr / mbtree=1 / bitrate=3500 / ratetol=1.0 / qcomp=0.60 / qpmin=0 / qpmax=69 / qpstep=4 / vbv_maxrate=62500 / vbv_bufsize=78125 / nal_hrd=none / filler=0 / ip_ratio=1.40 / aq=1:1.00
    Language                                 : English
    Default                                  : Yes
    Forced                                   : No
    Color range                              : Limited
    Color primaries                          : BT.709
    Transfer characteristics                 : BT.709
    Matrix coefficients                      : BT.709
    Statistics Tags Issue                    : mkvmerge v15.0.0 ('Duel with the Devil') 64-bit 2017-12-06 20:05:13 / mkvmerge v15.0.0 ('Duel with the Devil') 64-bit 2017-12-06 20:05:13 / UTC 2017-12-06T18:35:32Z
    FromStats_BitRate                        : 3469324
    FromStats_Duration                       : 02:12:11.007000000
    FromStats_FrameCount                     : 190154
    FromStats_StreamSize                     : 3439404978

    Audio #1
    ID                                       : 2
    Format                                   : AC-3
    Format/Info                              : Audio Coding 3
    Format settings, Endianness              : Big
    Codec ID                                 : A_AC3
    Duration                                 : 2 h 12 min
    Bit rate mode                            : Constant
    Bit rate                                 : 192 kb/s
    Channel(s)                               : 2 channels
    Channel positions                        : Front: L R
    Sampling rate                            : 48.0 kHz
    Frame rate                               : 31.250 FPS (1536 SPF)
    Bit depth                                : 16 bits
    Compression mode                         : Lossy
    Delay relative to video                  : -5 ms
    Stream size                              : 182 MiB (5%)
    Title                                    : AC3-iTunes
    Language                                 : Spanish
    Service kind                             : Complete Main
    Default                                  : Yes
    Forced                                   : No
    Statistics Tags Issue                    : mkvmerge v15.0.0 ('Duel with the Devil') 64-bit 2017-12-06 20:05:13 / mkvmerge v15.0.0 ('Duel with the Devil') 64-bit 2017-12-06 20:05:13 / UTC 2017-12-06T18:35:32Z
    FromStats_BitRate                        : 192000
    FromStats_Duration                       : 02:12:10.112000000
    FromStats_FrameCount                     : 247816
    FromStats_StreamSize                     : 190322688

    Audio #2
    ID                                       : 3
    Format                                   : AC-3
    Format/Info                              : Audio Coding 3
    Format settings, Endianness              : Big
    Codec ID                                 : A_AC3
    Duration                                 : 2 h 12 min
    Bit rate mode                            : Constant
    Bit rate                                 : 384 kb/s
    Channel(s)                               : 6 channels
    Channel positions                        : Front: L C R, Side: L R, LFE
    Sampling rate                            : 48.0 kHz
    Frame rate                               : 31.250 FPS (1536 SPF)
    Bit depth                                : 16 bits
    Compression mode                         : Lossy
    Delay relative to video                  : -5 ms
    Stream size                              : 363 MiB (9%)
    Title                                    : AC3-BluRay
    Language                                 : English
    Service kind                             : Complete Main
    Default                                  : No
    Forced                                   : No
    Statistics Tags Issue                    : mkvmerge v15.0.0 ('Duel with the Devil') 64-bit 2017-12-06 20:05:13 / mkvmerge v15.0.0 ('Duel with the Devil') 64-bit 2017-12-06 20:05:13 / UTC 2017-12-06T18:35:32Z
    FromStats_BitRate                        : 384000
    FromStats_Duration                       : 02:12:10.976000000
    FromStats_FrameCount                     : 247843
    FromStats_StreamSize                     : 380686848

    Text #1
    ID                                       : 4
    Format                                   : UTF-8
    Codec ID                                 : S_TEXT/UTF8
    Codec ID/Info                            : UTF-8 Plain Text
    Title                                    : Forzados
    Language                                 : Spanish
    Default                                  : Yes
    Forced                                   : Yes
    Statistics Tags Issue                    : mkvmerge v15.0.0 ('Duel with the Devil') 64-bit 2017-12-06 20:05:13 / mkvmerge v15.0.0 ('Duel with the Devil') 64-bit 2017-12-06 20:05:13 / UTC 2017-12-06T18:35:32Z
    FromStats_BitRate                        : 0
    FromStats_Duration                       : 02:00:21.972000000
    FromStats_FrameCount                     : 24
    FromStats_StreamSize                     : 722

    Text #2
    ID                                       : 5
    Format                                   : UTF-8
    Codec ID                                 : S_TEXT/UTF8
    Codec ID/Info                            : UTF-8 Plain Text
    Title                                    : Completos
    Language                                 : Spanish
    Default                                  : No
    Forced                                   : No
    Statistics Tags Issue                    : mkvmerge v15.0.0 ('Duel with the Devil') 64-bit 2017-12-06 20:05:13 / mkvmerge v15.0.0 ('Duel with the Devil') 64-bit 2017-12-06 20:05:13 / UTC 2017-12-06T18:35:32Z
    FromStats_BitRate                        : 98
    FromStats_Duration                       : 02:05:20.146000000
    FromStats_FrameCount                     : 2272
    FromStats_StreamSize                     : 92164

    Menu
    00:00:00.000                             : :00:00:00.000
    00:03:17.698                             : :00:03:17.572
    00:10:01.810                             : :00:10:01.810
    00:14:33.331                             : :00:14:33.331
    00:21:39.757                             : :00:21:39.632
    00:27:24.601                             : :00:27:24.601
    00:30:24.614                             : :00:30:24.614
    00:35:40.597                             : :00:35:40.597
    00:40:37.018                             : :00:40:37.018
    00:45:36.651                             : :00:45:36.651
    00:50:08.130                             : :00:50:08.130
    00:56:55.662                             : :00:56:55.662
    01:01:31.188                             : :01:01:31.146
    01:05:00.605                             : :01:05:00.563
    01:10:10.415                             : :01:10:10.415
    01:15:56.552                             : :01:15:56.552
    01:22:25.399                             : :01:22:25.399
    01:31:17.097                             : :01:31:17.097
    01:35:47.825                             : :01:35:47.825
    01:41:48.477                             : :01:41:48.436
    01:45:25.653                             : :01:45:25.653
    01:54:30.781                             : :01:54:30.781
    02:03:40.413                             : :02:03:40.288
    02:08:02.133                             : :02:08:02.008

  • Peso: 3.74 GiB

Sinopsis

Elizabeth Sloane (Jessica Chastain) es una implacable y ambiciosa ejecutiva que intenta que fructifique una legislación a favor del control de armas en Washington DC. Para ello intentará usar todos los recursos a su alcance. En las altas esferas del mundo político y empresarial Sloane tiene una reputación formidable. Conocida por su astucia y sus éxitos sin parangón, siempre ha hecho lo que fuera necesario para ganar. Pero cuando se enfrenta al oponente más poderoso de su carrera, se da cuenta de que la victoria puede tener un precio demasiado alto.

Ficha técnica

Video trailer de la película

Enlaces de descarga

Rip de Bluray

Descargar Sola Contra El Poder (2016) 1080p Latino




Aportes de DPeliculasHDmega la pass es:dpeliculashdmega.org Aportes de CinemaniaHD la pass es:cinemaniahdd.com Aportes recientes:cinemaniahdd.net
Guardado en : Drama , Suspenso

Películas relacionadas

descargar Sola Contra El Poder (2016) 1080p Latino 1080p 1080p gratis, Sola Contra El Poder (2016) 1080p Latino 1080p mega 1 link, Sola Contra El Poder (2016) 1080p Latino 1080p pelicula completa, descargar Sola Contra El Poder (2016) 1080p Latino 1080p gratis en mega.

Sola Contra El Poder (2016) 1080p Latino pelicula full hd, Sola Contra El Poder (2016) 1080p Latino mega latino, Sola Contra El Poder (2016) 1080p Latino 4k latino, Sola Contra El Poder (2016) 1080p Latino pelicula completa, Sola Contra El Poder (2016) 1080p Latino descargar gratis, descargar Sola Contra El Poder (2016) 1080p Latino pelicula latino, Sola Contra El Poder (2016) 1080p Latino 1 link mega, Sola Contra El Poder (2016) 1080p Latino 1 link google drive, Sola Contra El Poder (2016) 1080p Latino hd 1080p latino.
Comentarios 5