Sola (2020) REMUX 1080p Latino

28 vistas
1 estrella2 estrellas3 estrellas4 estrellas5 estrellas (1 votos, promedio: 5,00 de 5)
Cargando...

Información de Sola (2020) REMUX 1080p Latino

Datos de la película

  • Calidad: Full 1080p
  • Audio: Español Latino AC3 2.0 iTUNES - Ingles DTS 5.1 BURAY
  • Subtitulos: Español Latino SRT- FORZADOS SRT
  • Resolución: 1920x1080p
  • Formato: MKV
  • Codec: H.264
  • Encoder: Melkor
  • Mediainfo: Clic para Mostrar Datos Ver
  • Sola (2020) REMUX 1080p Latino.mkv
    Format                      : Matroska
    Format version              : Version 4
    File size                   : 17.3 GiB
    Duration                    : 1 h 37 min
    Overall bit rate mode       : Variable
    Overall bit rate            : 25.3 Mb/s
    Movie name                  : Alone (2020) CinemaniaHDD.Net
    Encoded date                : UTC 2021-04-22 01:47:01
    Writing application         : mkvmerge v51.0.0 ('I Wish') 64-bit
    Writing library             : libebml v1.4.0 + libmatroska v1.6.2
    Attachments                 : CINEMANIAHD.png

    Video
    ID                          : 1
    Format                      : AVC
    Format/Info                 : Advanced Video Codec
    Format profile              : High@L4.1
    Format settings             : CABAC / 4 Ref Frames
    Format settings, CABAC      : Yes
    Format settings, Reference  : 4 frames
    Codec ID                    : V_MPEG4/ISO/AVC
    Duration                    : 1 h 37 min
    Bit rate mode               : Variable
    Bit rate                    : 23.0 Mb/s
    Maximum bit rate            : 35.0 Mb/s
    Width                       : 1 920 pixels
    Height                      : 1 080 pixels
    Display aspect ratio        : 16:9
    Frame rate mode             : Constant
    Frame rate                  : 23.976 (24000/1001) FPS
    Standard                    : NTSC
    Color space                 : YUV
    Chroma subsampling          : 4:2:0
    Bit depth                   : 8 bits
    Scan type                   : Progressive
    Bits/(Pixel*Frame)          : 0.462
    Stream size                 : 15.7 GiB (91%)
    Title                       : REMUX HD1080p [CinemaniaHDD]
    Language                    : English
    Default                     : Yes
    Forced                      : No
    Color range                 : Limited
    Color primaries             : BT.709
    Transfer characteristics    : BT.709
    Matrix coefficients         : BT.709

    Audio #1
    ID                          : 2
    Format                      : AC-3
    Format/Info                 : Audio Coding 3
    Commercial name             : Dolby Digital
    Codec ID                    : A_AC3
    Duration                    : 1 h 37 min
    Bit rate mode               : Constant
    Bit rate                    : 256 kb/s
    Channel(s)                  : 2 channels
    Channel layout              : L R
    Sampling rate               : 48.0 kHz
    Frame rate                  : 31.250 FPS (1536 SPF)
    Compression mode            : Lossy
    Stream size                 : 179 MiB (1%)
    Title                       : Español Latino [CinemaniaHDD]
    Language                    : Spanish
    Service kind                : Complete Main
    Default                     : Yes
    Forced                      : No

    Audio #2
    ID                          : 3
    Format                      : DTS XLL
    Format/Info                 : Digital Theater Systems
    Commercial name             : DTS-HD Master Audio
    Codec ID                    : A_DTS
    Duration                    : 1 h 37 min
    Bit rate mode               : Variable
    Bit rate                    : 2 014 kb/s
    Channel(s)                  : 6 channels
    Channel layout              : C L R Ls Rs LFE
    Sampling rate               : 48.0 kHz
    Frame rate                  : 93.750 FPS (512 SPF)
    Bit depth                   : 16 bits
    Compression mode            : Lossless
    Stream size                 : 1.38 GiB (8%)
    Title                       : Ingles [CinemaniaHDD]
    Language                    : English
    Default                     : No
    Forced                      : No

    Text #1
    ID                          : 4
    Format                      : UTF-8
    Codec ID                    : S_TEXT/UTF8
    Codec ID/Info               : UTF-8 Plain Text
    Duration                    : 1 h 10 min
    Bit rate                    : 0 b/s
    Count of elements           : 10
    Stream size                 : 91.0 Bytes (0%)
    Title                       : Forzados-SRT [CinemaniaHDD]
    Language                    : Spanish
    Default                     : Yes
    Forced                      : No

    Text #2
    ID                          : 5
    Format                      : UTF-8
    Codec ID                    : S_TEXT/UTF8
    Codec ID/Info               : UTF-8 Plain Text
    Duration                    : 1 h 35 min
    Bit rate                    : 20 b/s
    Count of elements           : 557
    Stream size                 : 14.4 KiB (0%)
    Title                       : Español-SRT [CinemaniaHDD]
    Language                    : Spanish
    Default                     : No
    Forced                      : No

    Text #3
    ID                          : 6
    Format                      : UTF-8
    Codec ID                    : S_TEXT/UTF8
    Codec ID/Info               : UTF-8 Plain Text
    Duration                    : 1 h 29 min
    Bit rate                    : 23 b/s
    Count of elements           : 554
    Stream size                 : 15.4 KiB (0%)
    Title                       : Ingles-SRT [CinemaniaHDD]
    Language                    : English
    Default                     : No
    Forced                      : No

    Menu
    00:00:01.154                : en:On the Road
    00:05:34.236                : en:Being Followed
    00:11:38.141                : en:Chance Encounter
    00:16:53.581                : en:Stalked
    00:24:03.468                : en:Captured
    00:31:49.267                : en:Captive
    00:40:01.676                : en:Escape
    00:42:58.018                : en:Hunt Begins
    00:48:25.387                : en:Free
    00:53:01.537                : en:Assistance
    00:59:34.930                : en:Turn of Events
    01:03:39.214                : en:All in the Eyes
    01:14:05.298                : en:Hunted Becomes the Hunter
    01:18:31.813                : en:In Hiding
    01:26:10.188                : en:Crash
    01:28:30.160                : en:Final Encounter

  • Peso: 17.3 GiB

Sinopsis

Descargar Sola (2020) REMUX 1080p Latino. Una mujer viuda que viaja sola es secuestrada por un asesino a sangre fría. Cuando logra escapar de su captor no tendrá solo que evitar que éste la descubra, sino también que luchar contra los elementos de la naturaleza.

Ficha técnica

  • Titulo original: Alone
  • Fecha de lanzamiento: 10-09-2020 (United States of America)
  • Director: John Hyams
  • Género: Drama, Remux, Suspenso, Terror
  • Puntuación: 5.0 1 votos
  • Duración:
    1h 40m

Video trailer de la película

Enlaces de descarga

Rip de Bluray

Descargar Sola (2020) REMUX 1080p Latino




Aportes de DPeliculasHDmega la pass es:dpeliculashdmega.org Aportes de CinemaniaHD la pass es:cinemaniahdd.com
Guardado en : Drama , Remux , Suspenso , Terror

Películas relacionadas

Sola (2020) REMUX 1080p Latino pelicula full hd, Sola (2020) REMUX 1080p Latino mega latino, Sola (2020) REMUX 1080p Latino 4k latino, Sola (2020) REMUX 1080p Latino pelicula completa, Sola (2020) REMUX 1080p Latino descargar gratis, descargar Sola (2020) REMUX 1080p Latino pelicula latino, Sola (2020) REMUX 1080p Latino 1 link mega, Sola (2020) REMUX 1080p Latino 1 link google drive, Sola (2020) REMUX 1080p Latino hd 1080p latino.
Comentarios 0