Sobrevive la noche (2020) WEB-DL 1080p Latino

21 vistas
1 estrella2 estrellas3 estrellas4 estrellas5 estrellas (Ninguna valoración todavía)
Cargando…

Información de Sobrevive la noche (2020) WEB-DL 1080p Latino

Datos de la película

  • Calidad: WEBDL
  • Audio: Español Latino AC3 5.1 iTunes - Ingles AC3 5.1 iTunes
  • Subtitulos: Español Latino SRT
  • Resolución: 1920x1080
  • Formato: MKV
  • Codec: H.264
  • Encoder: CinemaniaHD
  • Mediainfo: Clic para Mostrar Datos Ver
  • Survive the Night (2020) WEB-DL 1080p Latino.mkv
    Format                      : Matroska
    Format version              : Version 4
    File size                   : 4.06 GiB
    Duration                    : 1 h 29 min
    Overall bit rate            : 6 521 kb/s
    Encoded date                : UTC 2020-05-22 06:03:51
    Writing application         : mkvmerge v46.0.0 ('No Deeper Escape') 64-bit
    Writing library             : libebml v1.3.10 + libmatroska v1.5.2

    Video
    ID                          : 1
    Format                      : AVC
    Format/Info                 : Advanced Video Codec
    Format profile              : High@L4
    Format settings             : CABAC / 4 Ref Frames
    Format settings, CABAC      : Yes
    Format settings, Reference  : 4 frames
    Codec ID                    : V_MPEG4/ISO/AVC
    Duration                    : 1 h 28 min
    Bit rate                    : 5 772 kb/s
    Width                       : 1 920 pixels
    Height                      : 1 080 pixels
    Display aspect ratio        : 16:9
    Frame rate mode             : Constant
    Frame rate                  : 23.976 (24000/1001) FPS
    Color space                 : YUV
    Chroma subsampling          : 4:2:0
    Bit depth                   : 8 bits
    Scan type                   : Progressive
    Bits/(Pixel*Frame)          : 0.116
    Stream size                 : 3.58 GiB (88%)
    Default                     : Yes
    Forced                      : No

    Audio #1
    ID                          : 2
    Format                      : AC-3
    Format/Info                 : Audio Coding 3
    Commercial name             : Dolby Digital
    Codec ID                    : A_AC3
    Duration                    : 1 h 29 min
    Bit rate mode               : Constant
    Bit rate                    : 384 kb/s
    Channel(s)                  : 6 channels
    Channel layout              : L R C LFE Ls Rs
    Sampling rate               : 48.0 kHz
    Frame rate                  : 31.250 FPS (1536 SPF)
    Compression mode            : Lossy
    Delay relative to video     : 10 ms
    Stream size                 : 245 MiB (6%)
    Language                    : Spanish
    Service kind                : Complete Main
    Default                     : Yes
    Forced                      : No

    Audio #2
    ID                          : 3
    Format                      : AC-3
    Format/Info                 : Audio Coding 3
    Commercial name             : Dolby Digital
    Codec ID                    : A_AC3
    Duration                    : 1 h 28 min
    Bit rate mode               : Constant
    Bit rate                    : 384 kb/s
    Channel(s)                  : 6 channels
    Channel layout              : L R C LFE Ls Rs
    Sampling rate               : 48.0 kHz
    Frame rate                  : 31.250 FPS (1536 SPF)
    Compression mode            : Lossy
    Stream size                 : 244 MiB (6%)
    Language                    : English
    Service kind                : Complete Main
    Default                     : No
    Forced                      : No

    Text
    ID                          : 4
    Format                      : UTF-8
    Codec ID                    : S_TEXT/UTF8
    Codec ID/Info               : UTF-8 Plain Text
    Duration                    : 1 h 20 min
    Bit rate                    : 34 b/s
    Count of elements           : 904
    Stream size                 : 20.4 KiB (0%)
    Default                     : No
    Forced                      : No

  • Peso: 4.06 GiB

Sinopsis

Un médico deshonrado y su familia son retenidos como rehenes en su casa por delincuentes fugitivos, cuando un robo a mano armada les exige que busquen atención médica inmediata.

Ficha técnica

  • Titulo original: Survive the Night
  • Fecha de lanzamiento: 22-05-2020 (United States of America)
  • Director: Matt Eskandari
  • Género: Acción, Suspenso
  • Puntuación: 0.0 0 votos
  • Duración:
    1h 28m

Video trailer de la película

Enlaces de descarga

Rip de Bluray

Descargar Sobrevive la noche (2020) WEB-DL 1080p Latino




Aportes de DPeliculasHDmega la pass es:dpeliculashdmega.org Aportes de CinemaniaHD la pass es:cinemaniahdd.com
Guardado en : Acción , Suspenso

Películas relacionadas

  • La Cacería (2020) HD 1080p Latino

    La Cacería (2020) HD 1080p Latino

    2020
    La Cacería (2020) HD 1080p Latino

    0.0 1h 55m 2020

    Descargar La Cacería (2020) HD 1080p Latino. La película sigue a 12 extraños que misteriosamente se...

    Director: Lars P. Winther

    Género: Acción

    Actores: Wayne Duvall

  • La Cacería (2020) PLACEBO Full HD 1080p Latino

    La Cacería (2020) PLACEBO Full HD 1080p Latino

    2020
    La Cacería (2020) PLACEBO Full HD 1080p Latino

    0.0 1h 55m 2020

    Descargar La Cacería (2020) PLACEBO Full HD 1080p Latino. La película sigue a 12 extraños que misteriosamente...

    Director: Lars P. Winther

    Género: Acción

    Actores: Wayne Duvall

  • La Cacería (2020) REMUX 1080p Latino

    La Cacería (2020) REMUX 1080p Latino

    2020
    La Cacería (2020) REMUX 1080p Latino

    0.0 1h 55m 2020

    Descargar La Cacería (2020) REMUX 1080p Latino. La película sigue a 12 extraños que misteriosamente...

    Director: Lars P. Winther

    Género: Acción

    Actores: Wayne Duvall

  • Rápido y Furioso 2 (2003) HD 1080p Latino – CMHDD

    Rápido y Furioso 2 (2003) HD 1080p Latino – CMHDD

    2003
    Rápido y Furioso 2 (2003) HD 1080p Latino – CMHDD

    0.0 1h 45m 2003

    Secuela de "A todo gas" (The Fast and the Furious). Brian O'Connor, un policía caído en desgracia,...

    Director: Terry Leonard

    Género: Acción

    Actores: Zachary L. Mann

Comentarios 0