×

¿Problemas para descargar con Mozilla, EDGE? Deshabilita la opción "Abrir vinculos en una pestaña nueva" tal como lo muestra ésta imagen.

Sobre La Ley (2019) REMUX 1080p Latino

192 vistas

Información de Sobre La Ley (2019) REMUX 1080p Latino

Datos de la película

  • Calidad: Full 1080p
  • Audio: Español Latino AC3 5.1 iTUNES - Ingles DTS 5.1 BLURAY
  • Subtitulos: Español Latino SRT- FORZADOS SRT
  • Resolución: 1920x1080p
  • Formato: MKV
  • Codec: H.264
  • Encoder: Melkor
  • Mediainfo: Clic para Mostrar Datos Ver
  • Sobre La Ley (2019) REMUX 1080p Latino.mkv
    Format                      : Matroska
    Format version              : Version 4
    File size                   : 15.4 GiB
    Duration                    : 1 h 29 min
    Overall bit rate mode       : Variable
    Overall bit rate            : 24.5 Mb/s
    Movie name                  : Beyond The Law (2019) CinemaniaHDD.Net
    Encoded date                : UTC 2021-05-21 08:14:53
    Writing application         : mkvmerge v56.1.0 ('My Friend') 64-bit
    Writing library             : libebml v1.4.2 + libmatroska v1.6.4
    Attachments                 : CINEMANIAHD.png

    Video
    ID                          : 1
    Format                      : AVC
    Format/Info                 : Advanced Video Codec
    Format profile              : High@L4.1
    Format settings             : CABAC / 4 Ref Frames
    Format settings, CABAC      : Yes
    Format settings, Reference  : 4 frames
    Codec ID                    : V_MPEG4/ISO/AVC
    Duration                    : 1 h 29 min
    Bit rate mode               : Variable
    Bit rate                    : 20.7 Mb/s
    Maximum bit rate            : 36.0 Mb/s
    Width                       : 1 920 pixels
    Height                      : 1 080 pixels
    Display aspect ratio        : 16:9
    Frame rate mode             : Constant
    Frame rate                  : 23.976 (24000/1001) FPS
    Color space                 : YUV
    Chroma subsampling          : 4:2:0
    Bit depth                   : 8 bits
    Scan type                   : Progressive
    Bits/(Pixel*Frame)          : 0.416
    Stream size                 : 12.9 GiB (84%)
    Title                       : REMUX HD1080p [CinemaniaHDD]
    Language                    : English
    Default                     : Yes
    Forced                      : No

    Audio #1
    ID                          : 2
    Format                      : AC-3
    Format/Info                 : Audio Coding 3
    Commercial name             : Dolby Digital
    Codec ID                    : A_AC3
    Duration                    : 1 h 29 min
    Bit rate mode               : Constant
    Bit rate                    : 448 kb/s
    Channel(s)                  : 6 channels
    Channel layout              : L R C LFE Ls Rs
    Sampling rate               : 48.0 kHz
    Frame rate                  : 31.250 FPS (1536 SPF)
    Compression mode            : Lossy
    Stream size                 : 287 MiB (2%)
    Title                       : Español Latino [CinemaniaHDD]
    Language                    : Spanish
    Service kind                : Complete Main
    Default                     : Yes
    Forced                      : Yes

    Audio #2
    ID                          : 3
    Format                      : DTS XLL
    Format/Info                 : Digital Theater Systems
    Commercial name             : DTS-HD Master Audio
    Codec ID                    : A_DTS
    Duration                    : 1 h 29 min
    Bit rate mode               : Variable
    Bit rate                    : 3 392 kb/s
    Channel(s)                  : 6 channels
    Channel layout              : C L R Ls Rs LFE
    Sampling rate               : 48.0 kHz
    Frame rate                  : 93.750 FPS (512 SPF)
    Bit depth                   : 24 bits
    Compression mode            : Lossless
    Stream size                 : 2.12 GiB (14%)
    Title                       : Ingles [CinemaniaHDD]
    Language                    : English
    Default                     : No
    Forced                      : No

    Text #1
    ID                          : 4
    Format                      : UTF-8
    Codec ID                    : S_TEXT/UTF8
    Codec ID/Info               : UTF-8 Plain Text
    Duration                    : 1 h 22 min
    Bit rate                    : 0 b/s
    Count of elements           : 8
    Stream size                 : 233 Bytes (0%)
    Title                       : Forzados-SRT [CinemaniaHDD]
    Language                    : Spanish
    Default                     : Yes
    Forced                      : Yes

    Text #2
    ID                          : 5
    Format                      : UTF-8
    Codec ID                    : S_TEXT/UTF8
    Codec ID/Info               : UTF-8 Plain Text
    Duration                    : 1 h 23 min
    Bit rate                    : 39 b/s
    Count of elements           : 883
    Stream size                 : 24.4 KiB (0%)
    Title                       : Español-SRT [CinemaniaHDD]
    Language                    : Spanish
    Default                     : No
    Forced                      : No

    Text #3
    ID                          : 6
    Format                      : UTF-8
    Codec ID                    : S_TEXT/UTF8
    Codec ID/Info               : UTF-8 Plain Text
    Duration                    : 1 h 21 min
    Bit rate                    : 42 b/s
    Count of elements           : 997
    Stream size                 : 25.7 KiB (0%)
    Title                       : Ingles-SRT [CinemaniaHDD]
    Language                    : English
    Default                     : No
    Forced                      : No

    Menu
    00:00:00.000                : Chapter 01
    00:10:39.472                : Chapter 02
    00:19:47.978                : Chapter 03
    00:29:57.796                : Chapter 04
    00:40:27.633                : Chapter 05
    00:51:12.235                : Chapter 06
    01:00:35.673                : Chapter 07
    01:23:43.601                : Chapter 08

  • Peso: 15.4 GiB

Sinopsis

Descargar Sobre La Ley (2019) REMUX 1080p Latino. Cuando un ex detective se entera del asesinato de su hijo , se aventura a regresar a las calles oscuras que una vez conoció tan bien. Armado, peligroso y sin nada que perder, debe enfrentarse a la despiadada mafia local en su misión de venganza.

Ficha técnica

Video trailer de la película

Enlaces de descarga

Rip de Bluray

Descargar Sobre La Ley (2019) REMUX 1080p Latino




Aportes de DPeliculasHDmega la pass es:dpeliculashdmega.org Aportes de CinemaniaHD la pass es:cinemaniahdd.com
Guardado en : Action , Remux

Películas relacionadas

  • Corazón de tinta (2008) REMUX 1080p Latino

    Corazón de tinta (2008) REMUX 1080p Latino

    2008
    Corazón de tinta (2008) REMUX 1080p Latino

    1h 46m 2008

    Descargar Corazón de tinta (2008) REMUX 1080p Latino. Mortimer “Mo” Folchart y su hija de 12 años,...

    Director: Sharon Mansfield

    Género: Aventura

    Actores: Tereza Srbová

  • Juego de espías (2001) REMUX 1080p Latino

    Juego de espías (2001) REMUX 1080p Latino

    2001
    Juego de espías (2001) REMUX 1080p Latino

    1h 55m 2001

    Descargar Juego de espías (2001) REMUX 1080p Latino. El día de su jubilación, el veterano agente de...

    Director: Tony Scott

    Género: Acción

    Actores: Zsolt Zágoni

  • Hombre de familia (2000) REMUX 1080p Latino

    Hombre de familia (2000) REMUX 1080p Latino

    2000
    Hombre de familia (2000) REMUX 1080p Latino

    2h 1m 2000

    Descargar Hombre de familia (2000) REMUX 1080p Latino. Jack Campbell es un egocéntrico broker de Wall...

    Director: Robert Schroer

    Género: Comedia

    Actores: Wass Stevens

descargar Sobre La Ley (2019) REMUX 1080p Latino Full 1080p 1080p gratis, Sobre La Ley (2019) REMUX 1080p Latino Full 1080p mega 1 link, Sobre La Ley (2019) REMUX 1080p Latino Full 1080p pelicula completa, descargar Sobre La Ley (2019) REMUX 1080p Latino Full 1080p gratis en mega.

Sobre La Ley (2019) REMUX 1080p Latino pelicula full hd, Sobre La Ley (2019) REMUX 1080p Latino mega latino, Sobre La Ley (2019) REMUX 1080p Latino 4k latino, Sobre La Ley (2019) REMUX 1080p Latino pelicula completa, Sobre La Ley (2019) REMUX 1080p Latino descargar gratis, descargar Sobre La Ley (2019) REMUX 1080p Latino pelicula latino, Sobre La Ley (2019) REMUX 1080p Latino 1 link mega, Sobre La Ley (2019) REMUX 1080p Latino 1 link google drive, Sobre La Ley (2019) REMUX 1080p Latino hd 1080p latino.
Comentarios 0