×

¿Problemas para descargar con Mozilla, EDGE? Deshabilita la opción "Abrir vinculos en una pestaña nueva" tal como lo muestra ésta imagen.

Snowpiercer (2021) Temporada 02 REMUX 1080p Latino

374 vistas

Información de Snowpiercer (2021) Temporada 02 REMUX 1080p Latino

Datos de la película

  • Calidad: Full 1080p
  • Audio: Se especifica abajo de la Sinopsis
  • Subtitulos: Español Latino SRT- FORZADOS SRT
  • Resolución: 1920x1080p
  • Formato: MKV
  • Codec: H.264
  • Encoder: CinefiloCool
  • Mediainfo: Clic para Mostrar Datos Ver
  • Snowpiercer S02E01 (2021) REMUX 1080p Latino-CMHDD.mkv
    Format                      : Matroska
    Format version              : Version 4
    File size                   : 5.73 GiB
    Duration                    : 46 min 23 s
    Overall bit rate mode       : Variable
    Overall bit rate            : 17.7 Mb/s
    Movie name                  : Snowpiercer S02E01 - The Time of Two Engines CinemaniaHDD.Net
    Encoded date                : UTC 2022-01-24 07:28:19
    Writing application         : mkvmerge v56.1.0 ('My Friend') 64-bit
    Writing library             : libebml v1.4.2 + libmatroska v1.6.4
    Attachments                 : CINEMANIAHD.png

    Video
    ID                          : 1
    ID in the original source m : 4113 (0x1011)
    Format                      : AVC
    Format/Info                 : Advanced Video Codec
    Format profile              : High@L4.1
    Format settings             : CABAC / 4 Ref Frames
    Format settings, CABAC      : Yes
    Format settings, Reference  : 4 frames
    Codec ID                    : V_MPEG4/ISO/AVC
    Duration                    : 46 min 23 s
    Bit rate mode               : Variable
    Bit rate                    : 14.8 Mb/s
    Maximum bit rate            : 22.0 Mb/s
    Width                       : 1 920 pixels
    Height                      : 1 080 pixels
    Display aspect ratio        : 16:9
    Frame rate mode             : Constant
    Frame rate                  : 23.976 (24000/1001) FPS
    Color space                 : YUV
    Chroma subsampling          : 4:2:0
    Bit depth                   : 8 bits
    Scan type                   : Progressive
    Bits/(Pixel*Frame)          : 0.297
    Stream size                 : 4.79 GiB (84%)
    Title                       : REMUX HD1080p [CinemaniaHDD]
    Default                     : Yes
    Forced                      : Yes
    Original source medium      : Blu-ray

    Audio #1
    ID                          : 2
    Format                      : AC-3
    Format/Info                 : Audio Coding 3
    Commercial name             : Dolby Digital
    Codec ID                    : A_AC3
    Duration                    : 46 min 23 s
    Bit rate mode               : Constant
    Bit rate                    : 640 kb/s
    Channel(s)                  : 6 channels
    Channel layout              : L R C LFE Ls Rs
    Sampling rate               : 48.0 kHz
    Frame rate                  : 31.250 FPS (1536 SPF)
    Compression mode            : Lossy
    Stream size                 : 212 MiB (4%)
    Title                       : Español Latino [CinemaniaHDD]
    Language                    : Spanish
    Service kind                : Complete Main
    Default                     : Yes
    Forced                      : Yes

    Audio #2
    ID                          : 3
    ID in the original source m : 4352 (0x1100)
    Format                      : DTS XLL
    Format/Info                 : Digital Theater Systems
    Commercial name             : DTS-HD Master Audio
    Codec ID                    : A_DTS
    Duration                    : 46 min 23 s
    Bit rate mode               : Variable
    Bit rate                    : 2 226 kb/s
    Channel(s)                  : 6 channels
    Channel layout              : C L R Ls Rs LFE
    Sampling rate               : 48.0 kHz
    Frame rate                  : 93.750 FPS (512 SPF)
    Bit depth                   : 16 bits
    Compression mode            : Lossless
    Stream size                 : 739 MiB (13%)
    Title                       : Ingles [CinemaniaHDD]
    Language                    : English
    Default                     : No
    Forced                      : No
    Original source medium      : Blu-ray

    Text #1
    ID                          : 4
    Format                      : UTF-8
    Codec ID                    : S_TEXT/UTF8
    Codec ID/Info               : UTF-8 Plain Text
    Duration                    : 42 min 10 s
    Bit rate                    : 0 b/s
    Count of elements           : 9
    Stream size                 : 201 Bytes (0%)
    Title                       : Forzados-SRT [CinemaniaHDD]
    Language                    : Spanish
    Default                     : Yes
    Forced                      : Yes

    Text #2
    ID                          : 5
    Format                      : UTF-8
    Codec ID                    : S_TEXT/UTF8
    Codec ID/Info               : UTF-8 Plain Text
    Duration                    : 46 min 1 s
    Bit rate                    : 53 b/s
    Count of elements           : 598
    Stream size                 : 18.1 KiB (0%)
    Title                       : Español-SRT [CinemaniaHDD]
    Language                    : Spanish
    Default                     : No
    Forced                      : No

    Text #3
    ID                          : 6
    Format                      : PGS
    Muxing mode                 : zlib
    Codec ID                    : S_HDMV/PGS
    Codec ID/Info               : Picture based subtitle format used on BDs/HD-DVDs
    Duration                    : 45 min 50 s
    Bit rate                    : 36.1 kb/s
    Count of elements           : 1338
    Stream size                 : 11.8 MiB (0%)
    Title                       : Ingles-PGS [CinemaniaHDD]
    Language                    : English
    Default                     : No
    Forced                      : No

    Menu
    00:00:00.000                : Chapter 01
    00:01:31.049                : Chapter 02
    00:10:23.164                : Chapter 03
    00:19:27.916                : Chapter 04
    00:26:45.604                : Chapter 05
    00:36:45.995                : Chapter 06
    00:41:56.388                : Chapter 07
    00:45:50.622                : Chapter 08
    00:46:22.446                : Chapter 09

  • Peso: 5.50 GiB Aprox. C/U | 56.7 GiB Total.

Sinopsis

Descargar Snowpiercer (2021) Temporada 02 REMUX 1080p Latino. Adaptación de la película de Bong Joon-ho. En un futuro en el que la Tierra ha quedado cubierta por hielos perpetuos, los pocos supervivientes humanos se han refugiado en un tren que recorre el planeta sin parar nunca. Ahí, los pasajeros se han repartido siguiendo un estricto sistema de clases en el que los más pudientes se encuentran en los vagones de la cabeza y los más pobres están en la cola y deben alimentar el motor del tren.

Argumento Primera Temporada: En la segunda temporada, surge una lucha de poder completamente nueva, que provoca una ruptura peligrosa a medida que las personas se dividen entre su lealtad a Layton y al Sr. Wilford, quien tiene un nuevo tren, nueva tecnología y un plan de juego que mantiene a todos en vilo. Mientras Layton lucha contra Wilford por el alma de Snowpiercer, Melanie lidera la carga en un nuevo descubrimiento impactante que podría cambiar el destino de la humanidad.

Audio:
Español Latino Editado AC3 5.1 Netflix – Ingles DTS-HD 5.1 Bluray
Audio Latino: CinefiloCool Thanks!! 🙂
Disponible Solo para VIP!!

Ficha técnica

Video trailer de la película

Enlaces de descarga

Rip de Bluray

Descargar Snowpiercer (2021) Temporada 02 REMUX 1080p Latino


Aportes de DPeliculasHDmega la pass es:dpeliculashdmega.org Aportes de CinemaniaHD la pass es:cinemaniahdd.com
Guardado en : Remux , Sci-Fi & Fantasy , Series

Películas relacionadas

descargar Snowpiercer (2021) Temporada 02 REMUX 1080p Latino Full 1080p 1080p gratis, Snowpiercer (2021) Temporada 02 REMUX 1080p Latino Full 1080p mega 1 link, Snowpiercer (2021) Temporada 02 REMUX 1080p Latino Full 1080p serie completa, descargar Snowpiercer (2021) Temporada 02 REMUX 1080p Latino Full 1080p gratis en mega.

Snowpiercer (2021) Temporada 02 REMUX 1080p Latino pelicula full hd, Snowpiercer (2021) Temporada 02 REMUX 1080p Latino mega latino, Snowpiercer (2021) Temporada 02 REMUX 1080p Latino 4k latino, Snowpiercer (2021) Temporada 02 REMUX 1080p Latino pelicula completa, Snowpiercer (2021) Temporada 02 REMUX 1080p Latino descargar gratis, descargar Snowpiercer (2021) Temporada 02 REMUX 1080p Latino pelicula latino, Snowpiercer (2021) Temporada 02 REMUX 1080p Latino 1 link mega, Snowpiercer (2021) Temporada 02 REMUX 1080p Latino 1 link google drive, Snowpiercer (2021) Temporada 02 REMUX 1080p Latino hd 1080p latino.
Comentarios 0