×

¿Problemas para descargar con Mozilla, EDGE? Deshabilita la opción "Abrir vinculos en una pestaña nueva" tal como lo muestra ésta imagen.

Snowpiercer (2020) Temporada 01 REMUX 1080p Latino

218 vistas

Información de Snowpiercer (2020) Temporada 01 REMUX 1080p Latino

Datos de la película

  • Calidad: Full 1080p
  • Audio: Se especifica abajo de la Sinopsis
  • Subtitulos: Español Latino SRT- FORZADOS SRT
  • Resolución: 1920x1080p
  • Formato: MKV
  • Codec: H.264
  • Encoder: CinefiloCool
  • Mediainfo: Clic para Mostrar Datos Ver
  • Snowpiercer S01E01 (2020) REMUX 1080p Latino-CMHDD.mkv
    Format                      : Matroska
    Format version              : Version 4
    File size                   : 6.39 GiB
    Duration                    : 51 min 24 s
    Overall bit rate mode       : Variable
    Overall bit rate            : 17.8 Mb/s
    Movie name                  : Snowpiercer S01E01 - First, the Weather Changed CinemaniaHDD.Net
    Encoded date                : UTC 2021-05-12 04:58:18
    Writing application         : mkvmerge v56.1.0 ('My Friend') 64-bit
    Writing library             : libebml v1.4.2 + libmatroska v1.6.4
    Attachments                 : CINEMANIAHD.png

    Video
    ID                          : 1
    Format                      : AVC
    Format/Info                 : Advanced Video Codec
    Format profile              : High@L4.1
    Format settings             : CABAC / 4 Ref Frames
    Format settings, CABAC      : Yes
    Format settings, Reference  : 4 frames
    Codec ID                    : V_MPEG4/ISO/AVC
    Duration                    : 51 min 24 s
    Bit rate mode               : Variable
    Bit rate                    : 14.9 Mb/s
    Maximum bit rate            : 38.0 Mb/s
    Width                       : 1 920 pixels
    Height                      : 1 080 pixels
    Display aspect ratio        : 16:9
    Frame rate mode             : Constant
    Frame rate                  : 23.976 (24000/1001) FPS
    Color space                 : YUV
    Chroma subsampling          : 4:2:0
    Bit depth                   : 8 bits
    Scan type                   : Progressive
    Bits/(Pixel*Frame)          : 0.300
    Stream size                 : 5.36 GiB (84%)
    Title                       : REMUX HD1080p [CinemaniaHDD]
    Default                     : Yes
    Forced                      : No

    Audio #1
    ID                          : 2
    Format                      : AC-3
    Format/Info                 : Audio Coding 3
    Commercial name             : Dolby Digital
    Codec ID                    : A_AC3
    Duration                    : 51 min 23 s
    Bit rate mode               : Constant
    Bit rate                    : 640 kb/s
    Channel(s)                  : 6 channels
    Channel layout              : L R C LFE Ls Rs
    Sampling rate               : 48.0 kHz
    Frame rate                  : 31.250 FPS (1536 SPF)
    Compression mode            : Lossy
    Stream size                 : 235 MiB (4%)
    Title                       : Español Latino [CinemaniaHDD]
    Language                    : Spanish
    Service kind                : Complete Main
    Default                     : Yes
    Forced                      : No

    Audio #2
    ID                          : 3
    Format                      : DTS XLL
    Format/Info                 : Digital Theater Systems
    Commercial name             : DTS-HD Master Audio
    Codec ID                    : A_DTS
    Duration                    : 51 min 23 s
    Bit rate mode               : Variable
    Bit rate                    : 2 205 kb/s
    Channel(s)                  : 6 channels
    Channel layout              : C L R Ls Rs LFE
    Sampling rate               : 48.0 kHz
    Frame rate                  : 93.750 FPS (512 SPF)
    Bit depth                   : 16 bits
    Compression mode            : Lossless
    Stream size                 : 810 MiB (12%)
    Title                       : Ingles [CinemaniaHDD]
    Language                    : English
    Default                     : No
    Forced                      : No

    Text #1
    ID                          : 4
    Format                      : UTF-8
    Codec ID                    : S_TEXT/UTF8
    Codec ID/Info               : UTF-8 Plain Text
    Duration                    : 47 min 41 s
    Bit rate                    : 0 b/s
    Count of elements           : 8
    Stream size                 : 103 Bytes (0%)
    Title                       : Forzados-SRT [CinemaniaHDD]
    Language                    : Spanish
    Default                     : Yes
    Forced                      : No

    Text #2
    ID                          : 5
    Format                      : UTF-8
    Codec ID                    : S_TEXT/UTF8
    Codec ID/Info               : UTF-8 Plain Text
    Duration                    : 51 min 8 s
    Bit rate                    : 60 b/s
    Count of elements           : 618
    Stream size                 : 22.8 KiB (0%)
    Title                       : Español-SRT [CinemaniaHDD]
    Language                    : Spanish
    Default                     : No
    Forced                      : No

    Text #3
    ID                          : 6
    Format                      : PGS
    Muxing mode                 : zlib
    Codec ID                    : S_HDMV/PGS
    Codec ID/Info               : Picture based subtitle format used on BDs/HD-DVDs
    Duration                    : 50 min 45 s
    Bit rate                    : 32.9 kb/s
    Count of elements           : 1322
    Stream size                 : 11.9 MiB (0%)
    Title                       : Ingles-PGS [CinemaniaHDD]
    Language                    : English
    Default                     : No
    Forced                      : No

    Menu
    00:00:00.000                : Chapter 1
    00:03:18.782                : Chapter 2
    00:15:29.554                : Chapter 3
    00:24:34.682                : Chapter 4
    00:36:13.880                : Chapter 5
    00:48:12.848                : Chapter 6
    00:50:51.048                : Chapter 7

  • Peso: 5.30 - 6.40 GiB Aprox. C/U | 56.9 GiB Total.

Sinopsis

Descargar Snowpiercer (2020) Temporada 01 REMUX 1080p Latino. Adaptación de la película de Bong Joon-ho. En un futuro en el que la Tierra ha quedado cubierta por hielos perpetuos, los pocos supervivientes humanos se han refugiado en un tren que recorre el planeta sin parar nunca. Ahí, los pasajeros se han repartido siguiendo un estricto sistema de clases en el que los más pudientes se encuentran en los vagones de la cabeza y los más pobres están en la cola y deben alimentar el motor del tren.

Audio:
Español Latino Editado AC3 5.1 Netflix – Ingles DTS-HD 5.1 Bluray
Audio Latino: CinefiloCool Thanks!! 🙂

Nota:
Disponible Solo para VIP!! 🙂

Ficha técnica

Video trailer de la película

Enlaces de descarga

Rip de Bluray

Descargar Snowpiercer (2020) Temporada 01 REMUX 1080p Latino


Aportes de DPeliculasHDmega la pass es:dpeliculashdmega.org Aportes de CinemaniaHD la pass es:cinemaniahdd.com
Guardado en : Remux , Sci-Fi & Fantasy , Series

Películas relacionadas

descargar Snowpiercer (2020) Temporada 01 REMUX 1080p Latino Full 1080p 1080p gratis, Snowpiercer (2020) Temporada 01 REMUX 1080p Latino Full 1080p mega 1 link, Snowpiercer (2020) Temporada 01 REMUX 1080p Latino Full 1080p serie completa, descargar Snowpiercer (2020) Temporada 01 REMUX 1080p Latino Full 1080p gratis en mega.

Snowpiercer (2020) Temporada 01 REMUX 1080p Latino pelicula full hd, Snowpiercer (2020) Temporada 01 REMUX 1080p Latino mega latino, Snowpiercer (2020) Temporada 01 REMUX 1080p Latino 4k latino, Snowpiercer (2020) Temporada 01 REMUX 1080p Latino pelicula completa, Snowpiercer (2020) Temporada 01 REMUX 1080p Latino descargar gratis, descargar Snowpiercer (2020) Temporada 01 REMUX 1080p Latino pelicula latino, Snowpiercer (2020) Temporada 01 REMUX 1080p Latino 1 link mega, Snowpiercer (2020) Temporada 01 REMUX 1080p Latino 1 link google drive, Snowpiercer (2020) Temporada 01 REMUX 1080p Latino hd 1080p latino.
Comentarios 0