×

¿Problemas para descargar con Mozilla, EDGE? Deshabilita la opción "Abrir vinculos en una pestaña nueva" tal como lo muestra ésta imagen.

Snowfall (2023) Sexta Temporada AMZN WEB-DL 1080p Latino

164 vistas

Información de Snowfall (2023) Sexta Temporada AMZN WEB-DL 1080p Latino

Datos de la película

  • Calidad: 1080p
  • Audio: Español Latino AC3 5.1 WEB-DL - Ingles AC3 5.1 WEB-DL
  • Subtitulos: Español Latino SRT- FORZADOS SRT
  • Resolución: 1920x1080
  • Formato: MKV
  • Codec: H.264
  • Encoder: cinemaniahdd
  • Mediainfo: Clic para Mostrar Datos Ver
  • Snowfall T06E01 AMZN WEB-DL 1080p Latino [CNMNHDD].mkv
    Format                      : Matroska
    Format version              : Version 4
    File size                   : 3.12 GiB
    Duration                    : 48 min 46 s
    Overall bit rate            : 9 153 kb/s
    Movie name                  : Snowfall S06E01 - Fallout [1080p] - CinemaniaHDD.Net
    Encoded date                : UTC 2023-11-26 15:19:39
    Writing application         : mkvmerge v56.1.0 ('My Friend') 64-bit
    Writing library             : libebml v1.4.2 + libmatroska v1.6.4

    Video
    ID                          : 1
    Format                      : AVC
    Format/Info                 : Advanced Video Codec
    Format profile              : High@L4
    Format settings             : CABAC / 4 Ref Frames
    Format settings, CABAC      : Yes
    Format settings, Reference  : 4 frames
    Codec ID                    : V_MPEG4/ISO/AVC
    Duration                    : 48 min 46 s
    Bit rate mode               : Constant
    Bit rate                    : 8 126 kb/s
    Nominal bit rate            : 10 000 kb/s
    Width                       : 1 920 pixels
    Height                      : 1 080 pixels
    Display aspect ratio        : 16:9
    Frame rate mode             : Constant
    Frame rate                  : 23.976 (24000/1001) FPS
    Color space                 : YUV
    Chroma subsampling          : 4:2:0
    Bit depth                   : 8 bits
    Scan type                   : Progressive
    Bits/(Pixel*Frame)          : 0.163
    Stream size                 : 2.77 GiB (89%)
    Title                       : CinemaniaHDD
    Default                     : Yes
    Forced                      : No
    Color range                 : Limited
    Color primaries             : BT.709
    Transfer characteristics    : BT.709
    Matrix coefficients         : BT.709

    Audio #1
    ID                          : 2
    Format                      : AC-3
    Format/Info                 : Audio Coding 3
    Commercial name             : Dolby Digital
    Codec ID                    : A_AC3
    Duration                    : 48 min 46 s
    Bit rate mode               : Constant
    Bit rate                    : 384 kb/s
    Channel(s)                  : 6 channels
    Channel layout              : L R C LFE Ls Rs
    Sampling rate               : 48.0 kHz
    Frame rate                  : 31.250 FPS (1536 SPF)
    Compression mode            : Lossy
    Stream size                 : 134 MiB (4%)
    Title                       : Español Latino [CinemaniaHDD]
    Language                    : Spanish
    Service kind                : Complete Main
    Default                     : Yes
    Forced                      : No

    Audio #2
    ID                          : 3
    Format                      : E-AC-3
    Format/Info                 : Enhanced AC-3
    Commercial name             : Dolby Digital Plus
    Codec ID                    : A_EAC3
    Duration                    : 48 min 46 s
    Bit rate mode               : Constant
    Bit rate                    : 640 kb/s
    Channel(s)                  : 6 channels
    Channel layout              : L R C LFE Ls Rs
    Sampling rate               : 48.0 kHz
    Frame rate                  : 31.250 FPS (1536 SPF)
    Compression mode            : Lossy
    Stream size                 : 223 MiB (7%)
    Title                       : Inglés [CinemaniaHDD]
    Language                    : English
    Service kind                : Complete Main
    Default                     : No
    Forced                      : No

    Text #1
    ID                          : 4
    Format                      : UTF-8
    Codec ID                    : S_TEXT/UTF8
    Codec ID/Info               : UTF-8 Plain Text
    Duration                    : 13 s 54 ms
    Bit rate                    : 570 b/s
    Count of elements           : 5
    Stream size                 : 931 Bytes (0%)
    Title                       : Forzados [CinemaniaHDD]
    Language                    : Spanish
    Default                     : Yes
    Forced                      : Yes

    Text #2
    ID                          : 5
    Format                      : UTF-8
    Codec ID                    : S_TEXT/UTF8
    Codec ID/Info               : UTF-8 Plain Text
    Duration                    : 48 min 27 s
    Bit rate                    : 63 b/s
    Count of elements           : 547
    Stream size                 : 22.6 KiB (0%)
    Title                       : Español Latino [CinemaniaHDD]
    Language                    : Spanish
    Default                     : No
    Forced                      : No

    Text #3
    ID                          : 6
    Format                      : UTF-8
    Codec ID                    : S_TEXT/UTF8
    Codec ID/Info               : UTF-8 Plain Text
    Duration                    : 48 min 0 s
    Bit rate                    : 68 b/s
    Count of elements           : 806
    Stream size                 : 24.2 KiB (0%)
    Title                       : Inglés [CinemaniaHDD]
    Language                    : English
    Default                     : No
    Forced                      : No

    Menu
    00:00:00.000                : Chapter 1
    00:08:56.959                : Chapter 2
    00:20:55.942                : Chapter 3
    00:27:03.943                : Chapter 4
    00:34:05.955                : Chapter 5
    00:41:23.960                : Chapter 6
    00:48:02.961                : Chapter 7
    00:48:05.954                : Credits

     

  • Peso: 3.12 GiB Aprox ---- 32 GiB in 10 Chapters.

Sinopsis

Snowfall es un drama que compara los inicios de la epidemia del crack en Los Ángeles con su extremo impacto en la cultura como la conocemos. La historia sigue a muchos personajes en conflictos violentos, incluyendo a Franklin Saint, un joven empresario de la calle en la búsqueda de poder; Gustavo “El Oso» Zapata, un luchador mexicano atrapado en una lucha de poder dentro de una familia criminal; Teddy McDonald, un agente de la CIA que huye de un pasado oscuro y que comienza una operación encubierta para financiar a los Contras de Nicaragua; y Lucia Villanueva, la tranquila hija de un señor del crimen mexicano. En Snowfall, todos trabajan por sus objetivos máximos de dinero, poder e influencia en Los Ángeles.

Ficha técnica

Video trailer de la película

Enlaces de descarga

Rip de Bluray

Descargar Snowfall (2023) Sexta Temporada AMZN WEB-DL 1080p Latino




Aportes de DPeliculasHDmega la pass es:dpeliculashdmega.org Aportes de CinemaniaHD la pass es:cinemaniahdd.com Aportes recientes:cinemaniahdd.net
Guardado en : Crimen , Drama , Series

Películas relacionadas

  • El Oso (2022) Temporada 2 WEB-DL 1080p Latino

    El Oso (2022) Temporada 2 WEB-DL 1080p Latino

    2022
    El Oso (2022) Temporada 2 WEB-DL 1080p Latino

    0h 0m 2022

    Descargar El Oso (2022) Temporada 2 WEB-DL 1080p Latino. Carmy, un joven chef de alta cocina, vuelve...

    Director: Christopher Storer

    Género: Comedia

    Actores: Matty Matheson

  • El Oso (2022) Temporada 1 WEB-DL 1080p Latino

    El Oso (2022) Temporada 1 WEB-DL 1080p Latino

    2022
    El Oso (2022) Temporada 1 WEB-DL 1080p Latino

    0h 0m 2022

    Descargar El Oso (2022) Temporada 1 WEB-DL 1080p Latino. Carmy, un joven chef de alta cocina, vuelve...

    Director: Christopher Storer

    Género: Comedia

    Actores: Matty Matheson

  • Wolves (2022) AMZN WEB-DL 1080p Latino

    Wolves (2022) AMZN WEB-DL 1080p Latino

    2022
    Wolves (2022) AMZN WEB-DL 1080p Latino

    1h 43m 2022

    Un joven solitario se depara con una serie de crímenes sin resolver, que involucran animales mutilados...

    Director: Danny Dunlop

    Género: Crimen

    Actores: Rod Keith

  • The Acolyte (2024) Temporada 1 WEB-DL 1080p Latino

    The Acolyte (2024) Temporada 1 WEB-DL 1080p Latino

    2024
    The Acolyte (2024) Temporada 1 WEB-DL 1080p Latino

    0h 0m 2024

    Descargar The Acolyte (2024) Temporada 1 WEB-DL 1080p Latino. Una investigación sobre una impactante...

    Director: Leslye Headland

    Género: Misterio

    Actores: 이정재

descargar Snowfall (2023) Sexta Temporada AMZN WEB-DL 1080p Latino 1080p 1080p gratis, Snowfall (2023) Sexta Temporada AMZN WEB-DL 1080p Latino 1080p mega 1 link, Snowfall (2023) Sexta Temporada AMZN WEB-DL 1080p Latino 1080p serie completa, descargar Snowfall (2023) Sexta Temporada AMZN WEB-DL 1080p Latino 1080p gratis en mega.

Snowfall (2023) Sexta Temporada AMZN WEB-DL 1080p Latino pelicula full hd, Snowfall (2023) Sexta Temporada AMZN WEB-DL 1080p Latino mega latino, Snowfall (2023) Sexta Temporada AMZN WEB-DL 1080p Latino 4k latino, Snowfall (2023) Sexta Temporada AMZN WEB-DL 1080p Latino pelicula completa, Snowfall (2023) Sexta Temporada AMZN WEB-DL 1080p Latino descargar gratis, descargar Snowfall (2023) Sexta Temporada AMZN WEB-DL 1080p Latino pelicula latino, Snowfall (2023) Sexta Temporada AMZN WEB-DL 1080p Latino 1 link mega, Snowfall (2023) Sexta Temporada AMZN WEB-DL 1080p Latino 1 link google drive, Snowfall (2023) Sexta Temporada AMZN WEB-DL 1080p Latino hd 1080p latino.
Comentarios 0