×

¿Problemas para descargar con Mozilla, EDGE? Deshabilita la opción "Abrir vinculos en una pestaña nueva" tal como lo muestra ésta imagen.

Snowfall (2022) Quinta Temporada AMZN WEB-DL 1080p Latino

27 vistas

Información de Snowfall (2022) Quinta Temporada AMZN WEB-DL 1080p Latino

Datos de la película

  • Calidad: 1080p
  • Audio: Español Latino AC3 5.1 WEB-DL - Ingles AC3 5.1 WEB-DL
  • Subtitulos: Español Latino SRT- FORZADOS SRT
  • Resolución: 1920x1080
  • Formato: MKV
  • Codec: H.264
  • Encoder: cinemaniahdd
  • Mediainfo: Clic para Mostrar Datos Ver
  • Snowfall T05E01 AMZN WEB-DL 1080p Latino [CNMNHDD].mkv
    Format                      : Matroska
    Format version              : Version 4
    File size                   : 3.28 GiB
    Duration                    : 48 min 38 s
    Overall bit rate            : 9 646 kb/s
    Movie name                  : Snowfall S05E01 - Comets [1080p] - CinemaniaHDD.Net
    Encoded date                : UTC 2022-09-02 02:32:32
    Writing application         : mkvmerge v56.1.0 ('My Friend') 64-bit
    Writing library             : libebml v1.4.2 + libmatroska v1.6.4

    Video
    ID                          : 1
    Format                      : AVC
    Format/Info                 : Advanced Video Codec
    Format profile              : High@L4
    Format settings             : CABAC / 4 Ref Frames
    Format settings, CABAC      : Yes
    Format settings, Reference  : 4 frames
    Codec ID                    : V_MPEG4/ISO/AVC
    Duration                    : 48 min 38 s
    Bit rate mode               : Constant
    Bit rate                    : 8 370 kb/s
    Nominal bit rate            : 10 000 kb/s
    Width                       : 1 920 pixels
    Height                      : 1 080 pixels
    Display aspect ratio        : 16:9
    Frame rate mode             : Constant
    Frame rate                  : 23.976 (24000/1001) FPS
    Color space                 : YUV
    Chroma subsampling          : 4:2:0
    Bit depth                   : 8 bits
    Scan type                   : Progressive
    Bits/(Pixel*Frame)          : 0.168
    Stream size                 : 2.84 GiB (87%)
    Title                       : CinemaniaHDD
    Language                    : English
    Default                     : Yes
    Forced                      : No
    Color range                 : Limited
    Color primaries             : BT.709
    Transfer characteristics    : BT.709
    Matrix coefficients         : BT.709

    Audio #1
    ID                          : 2
    Format                      : AC-3
    Format/Info                 : Audio Coding 3
    Commercial name             : Dolby Digital
    Codec ID                    : A_AC3
    Duration                    : 48 min 8 s
    Bit rate mode               : Constant
    Bit rate                    : 384 kb/s
    Channel(s)                  : 6 channels
    Channel layout              : L R C LFE Ls Rs
    Sampling rate               : 48.0 kHz
    Frame rate                  : 31.250 FPS (1536 SPF)
    Compression mode            : Lossy
    Stream size                 : 132 MiB (4%)
    Title                       : Español latino [CinemaniaHDD]
    Language                    : Spanish
    Service kind                : Complete Main
    Default                     : Yes
    Forced                      : No

    Audio #2
    ID                          : 3
    Format                      : E-AC-3
    Format/Info                 : Enhanced AC-3
    Commercial name             : Dolby Digital Plus
    Codec ID                    : A_EAC3
    Duration                    : 48 min 8 s
    Bit rate mode               : Constant
    Bit rate                    : 256 kb/s
    Channel(s)                  : 6 channels
    Channel layout              : L R C LFE Ls Rs
    Sampling rate               : 48.0 kHz
    Frame rate                  : 31.250 FPS (1536 SPF)
    Compression mode            : Lossy
    Stream size                 : 88.1 MiB (3%)
    Title                       : Español latino / E-AC3 [CinemaniaHDD]
    Language                    : Spanish
    Service kind                : Complete Main
    Default                     : No
    Forced                      : No

    Audio #3
    ID                          : 4
    Format                      : E-AC-3
    Format/Info                 : Enhanced AC-3
    Commercial name             : Dolby Digital Plus
    Codec ID                    : A_EAC3
    Duration                    : 48 min 38 s
    Bit rate mode               : Constant
    Bit rate                    : 640 kb/s
    Channel(s)                  : 6 channels
    Channel layout              : L R C LFE Ls Rs
    Sampling rate               : 48.0 kHz
    Frame rate                  : 31.250 FPS (1536 SPF)
    Compression mode            : Lossy
    Delay relative to video     : 16 ms
    Stream size                 : 223 MiB (7%)
    Title                       : Inglés [CinemaniaHDD]
    Language                    : English
    Service kind                : Complete Main
    Default                     : No
    Forced                      : No

    Text #1
    ID                          : 5
    Format                      : UTF-8
    Codec ID                    : S_TEXT/UTF8
    Codec ID/Info               : UTF-8 Plain Text
    Duration                    : 46 min 26 s
    Bit rate                    : 0 b/s
    Count of elements           : 4
    Stream size                 : 109 Bytes (0%)
    Title                       : Forzados [CinemaniaHDD]
    Language                    : Spanish
    Default                     : Yes
    Forced                      : Yes

    Text #2
    ID                          : 6
    Format                      : UTF-8
    Codec ID                    : S_TEXT/UTF8
    Codec ID/Info               : UTF-8 Plain Text
    Duration                    : 47 min 50 s
    Bit rate                    : 55 b/s
    Count of elements           : 622
    Stream size                 : 19.3 KiB (0%)
    Title                       : Español latino [CinemaniaHDD]
    Language                    : Spanish
    Default                     : No
    Forced                      : No

    Text #3
    ID                          : 7
    Format                      : UTF-8
    Codec ID                    : S_TEXT/UTF8
    Codec ID/Info               : UTF-8 Plain Text
    Duration                    : 48 min 24 s
    Bit rate                    : 72 b/s
    Count of elements           : 817
    Stream size                 : 25.8 KiB (0%)
    Title                       : Inglés [CinemaniaHDD]
    Language                    : English
    Default                     : No
    Forced                      : No

     

  • Peso: 3.28 GiB Aprox ---- 31 GiB in 10 Chapters.

Sinopsis

Snowfall es un drama que compara los inicios de la epidemia del crack en Los Ángeles con su extremo impacto en la cultura como la conocemos. La historia sigue a muchos personajes en conflictos violentos, incluyendo a Franklin Saint, un joven empresario de la calle en la búsqueda de poder; Gustavo “El Oso» Zapata, un luchador mexicano atrapado en una lucha de poder dentro de una familia criminal; Teddy McDonald, un agente de la CIA que huye de un pasado oscuro y que comienza una operación encubierta para financiar a los Contras de Nicaragua; y Lucia Villanueva, la tranquila hija de un señor del crimen mexicano. En Snowfall, todos trabajan por sus objetivos máximos de dinero, poder e influencia en Los Ángeles.

Ficha técnica

Video trailer de la película

Enlaces de descarga

Rip de Bluray

Descargar Snowfall (2022) Quinta Temporada AMZN WEB-DL 1080p Latino




Aportes de DPeliculasHDmega la pass es:dpeliculashdmega.org Aportes de CinemaniaHD la pass es:cinemaniahdd.com
Guardado en : Crimen , Drama , Series

Películas relacionadas

  • Wire Room (2022) HD 1080p Latino

    Wire Room (2022) HD 1080p Latino

    2022
    Wire Room (2022) HD 1080p Latino

    1h 37m 2022

    Descargar Wire Room (2022) HD 1080p Latino. Mientras está de servicio en la sala de cables, un agente...

    Director: Matt Eskandari

    Género: Acción

    Actores: Texas Battle

  • Wire Room (2022) PLACEBO Full HD 1080p Latino

    Wire Room (2022) PLACEBO Full HD 1080p Latino

    2022
    Wire Room (2022) PLACEBO Full HD 1080p Latino

    1h 37m 2022

    Descargar Wire Room (2022) PLACEBO Full HD 1080p Latino. Mientras está de servicio en la sala de cables,...

    Director: Matt Eskandari

    Género: Acción

    Actores: Texas Battle

  • Wire Room (2022) REMUX 1080p Latino

    Wire Room (2022) REMUX 1080p Latino

    2022
    Wire Room (2022) REMUX 1080p Latino

    1h 37m 2022

    Descargar Wire Room (2022) REMUX 1080p Latino. Mientras está de servicio en la sala de cables, un agente...

    Director: Matt Eskandari

    Género: Acción

    Actores: Texas Battle

descargar Snowfall (2022) Quinta Temporada AMZN WEB-DL 1080p Latino 1080p 1080p gratis, Snowfall (2022) Quinta Temporada AMZN WEB-DL 1080p Latino 1080p mega 1 link, Snowfall (2022) Quinta Temporada AMZN WEB-DL 1080p Latino 1080p serie completa, descargar Snowfall (2022) Quinta Temporada AMZN WEB-DL 1080p Latino 1080p gratis en mega.

Snowfall (2022) Quinta Temporada AMZN WEB-DL 1080p Latino pelicula full hd, Snowfall (2022) Quinta Temporada AMZN WEB-DL 1080p Latino mega latino, Snowfall (2022) Quinta Temporada AMZN WEB-DL 1080p Latino 4k latino, Snowfall (2022) Quinta Temporada AMZN WEB-DL 1080p Latino pelicula completa, Snowfall (2022) Quinta Temporada AMZN WEB-DL 1080p Latino descargar gratis, descargar Snowfall (2022) Quinta Temporada AMZN WEB-DL 1080p Latino pelicula latino, Snowfall (2022) Quinta Temporada AMZN WEB-DL 1080p Latino 1 link mega, Snowfall (2022) Quinta Temporada AMZN WEB-DL 1080p Latino 1 link google drive, Snowfall (2022) Quinta Temporada AMZN WEB-DL 1080p Latino hd 1080p latino.
Comentarios 0