×

¿Problemas para descargar con Mozilla, EDGE? Deshabilita la opción "Abrir vinculos en una pestaña nueva" tal como lo muestra ésta imagen.

Snowfall (2019) Tercera Temporada AMZN WEB-DL 1080p Latino

1.527 vistas

Información de Snowfall (2019) Tercera Temporada AMZN WEB-DL 1080p Latino

Datos de la película

  • Calidad: 1080p
  • Audio: Español Latino AC3 5.1 WEB-DL - Ingles AC3 5.1 WEB-DL
  • Subtitulos: Español Latino SRT- FORZADOS SRT
  • Resolución: 1920x1080
  • Formato: MKV
  • Codec: H.264
  • Encoder: cinemaniahdd
  • Mediainfo: Clic para Mostrar Datos Ver
  • Snowfall T03E01 AMZN WEB-DL 1080p Latino [CNMNHDD].mkv
    Format                      : Matroska
    Format version              : Version 4
    File size                   : 3.83 GiB
    Duration                    : 49 min 59 s
    Overall bit rate            : 11.0 Mb/s
    Movie name                  : Snowfall T03E01 - CinemaniaHDD.Net
    Encoded date                : UTC 2021-09-07 01:44:33
    Writing application         : mkvmerge v56.1.0 ('My Friend') 64-bit
    Writing library             : libebml v1.4.2 + libmatroska v1.6.4

    Video
    ID                          : 1
    Format                      : AVC
    Format/Info                 : Advanced Video Codec
    Format profile              : High@L4
    Format settings             : CABAC / 4 Ref Frames
    Format settings, CABAC      : Yes
    Format settings, Reference  : 4 frames
    Codec ID                    : V_MPEG4/ISO/AVC
    Duration                    : 49 min 58 s
    Bit rate                    : 9 932 kb/s
    Width                       : 1 920 pixels
    Height                      : 1 080 pixels
    Display aspect ratio        : 16:9
    Frame rate mode             : Constant
    Frame rate                  : 23.976 (24000/1001) FPS
    Color space                 : YUV
    Chroma subsampling          : 4:2:0
    Bit depth                   : 8 bits
    Scan type                   : Progressive
    Bits/(Pixel*Frame)          : 0.200
    Stream size                 : 3.47 GiB (91%)
    Title                       : CinemaniaHDD
    Language                    : English
    Default                     : Yes
    Forced                      : No
    Color range                 : Limited
    Color primaries             : BT.709
    Transfer characteristics    : BT.709
    Matrix coefficients         : BT.709

    Audio #1
    ID                          : 2
    Format                      : AC-3
    Format/Info                 : Audio Coding 3
    Commercial name             : Dolby Digital
    Codec ID                    : A_AC3
    Duration                    : 49 min 58 s
    Bit rate mode               : Constant
    Bit rate                    : 384 kb/s
    Channel(s)                  : 6 channels
    Channel layout              : L R C LFE Ls Rs
    Sampling rate               : 48.0 kHz
    Frame rate                  : 31.250 FPS (1536 SPF)
    Compression mode            : Lossy
    Stream size                 : 137 MiB (4%)
    Title                       : Español latino [CinemaniaHDD]
    Language                    : Spanish
    Service kind                : Complete Main
    Default                     : Yes
    Forced                      : No

    Audio #2
    ID                          : 3
    Format                      : E-AC-3
    Format/Info                 : Enhanced AC-3
    Commercial name             : Dolby Digital Plus
    Codec ID                    : A_EAC3
    Duration                    : 49 min 58 s
    Bit rate mode               : Constant
    Bit rate                    : 640 kb/s
    Channel(s)                  : 6 channels
    Channel layout              : L R C LFE Ls Rs
    Sampling rate               : 48.0 kHz
    Frame rate                  : 31.250 FPS (1536 SPF)
    Compression mode            : Lossy
    Delay relative to video     : 3 ms
    Stream size                 : 229 MiB (6%)
    Title                       : Inglés [CinemaniaHDD]
    Language                    : English
    Service kind                : Complete Main
    Default                     : No
    Forced                      : No

    Text #1
    ID                          : 4
    Format                      : UTF-8
    Codec ID                    : S_TEXT/UTF8
    Codec ID/Info               : UTF-8 Plain Text
    Duration                    : 16 min 8 s
    Bit rate                    : 0 b/s
    Count of elements           : 3
    Stream size                 : 53.0 Bytes (0%)
    Title                       : Forzados [CinemaniaHDD]
    Language                    : Spanish
    Default                     : Yes
    Forced                      : Yes

    Text #2
    ID                          : 5
    Format                      : UTF-8
    Codec ID                    : S_TEXT/UTF8
    Codec ID/Info               : UTF-8 Plain Text
    Duration                    : 49 min 19 s
    Bit rate                    : 63 b/s
    Count of elements           : 639
    Stream size                 : 22.9 KiB (0%)
    Title                       : Español latino [CinemaniaHDD]
    Language                    : Spanish
    Default                     : No
    Forced                      : No

    Text #3
    ID                          : 6
    Format                      : UTF-8
    Codec ID                    : S_TEXT/UTF8
    Codec ID/Info               : UTF-8 Plain Text
    Duration                    : 49 min 55 s
    Bit rate                    : 70 b/s
    Count of elements           : 868
    Stream size                 : 25.9 KiB (0%)
    Title                       : Inglés [CinemaniaHDD]
    Language                    : English
    Default                     : No
    Forced                      : No

     

  • Peso: 3.83 GiB Aprox ---- 36 GiB in 10 Chapters.

Sinopsis

Retrata los comienzos de la epidemia de la cocaína y del crack en Los Ángeles de principios de los 80, y sus radicales impactos en la cultura tal y como la conocemos. La historia sigue a numerosos personajes: Franklin Saint, un joven emprendedor de la calle en búsqueda del poder; Gustavo Zapata, un luchador mejicano reconvertido en gangster; Teddy McDonald, un policía de la CIA que escapa de un oscuro pasado y empieza una operación por su cuenta para fundar los Nicaraguan Contras y Luica Villanueva, la hija de un narcotraficante mejicano.

Ficha técnica

Video trailer de la película

Enlaces de descarga

Rip de Bluray

Descargar Snowfall (2019) Tercera Temporada AMZN WEB-DL 1080p Latino




Aportes de DPeliculasHDmega la pass es:dpeliculashdmega.org Aportes de CinemaniaHD la pass es:cinemaniahdd.com
Guardado en : Crimen , Drama , Series

Películas relacionadas

  • Paradise Highway (2022) HD 1080p Latino

    Paradise Highway (2022) HD 1080p Latino

    2022
    Paradise Highway (2022) HD 1080p Latino

    1h 55m 2022

    Descargar Paradise Highway (2022) HD 1080p Latino. Un camionero se ha visto obligado a pasar de contrabando...

    Director: Anna Gutto

    Género: Crimen

    Actores: Xavier Scott Evans

  • Paradise Highway (2022) PLACEBO Full HD 1080p Latino

    Paradise Highway (2022) PLACEBO Full HD 1080p Latino

    2022
    Paradise Highway (2022) PLACEBO Full HD 1080p Latino

    1h 55m 2022

    Descargar Paradise Highway (2022) PLACEBO Full HD 1080p Latino. Un camionero se ha visto obligado a pasar...

    Director: Anna Gutto

    Género: Crimen

    Actores: Xavier Scott Evans

  • Paradise Highway (2022) REMUX 1080p Latino

    Paradise Highway (2022) REMUX 1080p Latino

    2022
    Paradise Highway (2022) REMUX 1080p Latino

    1h 55m 2022

    Descargar Paradise Highway (2022) REMUX 1080p Latino. Un camionero se ha visto obligado a pasar de contrabando...

    Director: Anna Gutto

    Género: Crimen

    Actores: Xavier Scott Evans

descargar Snowfall (2019) Tercera Temporada AMZN WEB-DL 1080p Latino 1080p 1080p gratis, Snowfall (2019) Tercera Temporada AMZN WEB-DL 1080p Latino 1080p mega 1 link, Snowfall (2019) Tercera Temporada AMZN WEB-DL 1080p Latino 1080p serie completa, descargar Snowfall (2019) Tercera Temporada AMZN WEB-DL 1080p Latino 1080p gratis en mega.

Snowfall (2019) Tercera Temporada AMZN WEB-DL 1080p Latino pelicula full hd, Snowfall (2019) Tercera Temporada AMZN WEB-DL 1080p Latino mega latino, Snowfall (2019) Tercera Temporada AMZN WEB-DL 1080p Latino 4k latino, Snowfall (2019) Tercera Temporada AMZN WEB-DL 1080p Latino pelicula completa, Snowfall (2019) Tercera Temporada AMZN WEB-DL 1080p Latino descargar gratis, descargar Snowfall (2019) Tercera Temporada AMZN WEB-DL 1080p Latino pelicula latino, Snowfall (2019) Tercera Temporada AMZN WEB-DL 1080p Latino 1 link mega, Snowfall (2019) Tercera Temporada AMZN WEB-DL 1080p Latino 1 link google drive, Snowfall (2019) Tercera Temporada AMZN WEB-DL 1080p Latino hd 1080p latino.
Comentarios 3
  • Oscar - 27 agosto, 2019

    Cuando estaran disponibles los nuevos capitulos?

  • Oscar - 20 agosto, 2019

    Aun no suben los demas capitulos? Ya me quede en el capitulo 2 de la tercer temporada. 🙁 Porrr fa!

    • CinemaniaHDD - 08 septiembre, 2021

      temporadas completas, right now