×

¿Problemas para descargar con Mozilla, EDGE? Deshabilita la opción "Abrir vinculos en una pestaña nueva" tal como lo muestra ésta imagen.

Snowfall (2018) Segunda Temporada AMZN WEB-DL 1080p Latino

925 vistas

Información de Snowfall (2018) Segunda Temporada AMZN WEB-DL 1080p Latino

Datos de la película

  • Calidad: 1080p
  • Audio: Español Latino AC3 5.1 WEB-DL - Ingles AC3 5.1 WEB-DL
  • Subtitulos: Español Latino SRT- FORZADOS SRT
  • Resolución: 1920x1080
  • Formato: MKV
  • Codec: H.264
  • Encoder: cinemaniahdd
  • Mediainfo: Clic para Mostrar Datos Ver
  • Snowfall T02E01 AMZN WEB-DL 1080p Latino [CNMNHDD].mkv
    Format                      : Matroska
    Format version              : Version 4
    File size                   : 3.82 GiB
    Duration                    : 46 min 37 s
    Overall bit rate            : 11.7 Mb/s
    Movie name                  : Snowfall T02E01 - CinemaniaHDD.Net
    Encoded date                : UTC 2021-09-06 01:54:58
    Writing application         : mkvmerge v56.1.0 ('My Friend') 64-bit
    Writing library             : libebml v1.4.2 + libmatroska v1.6.4

    Video
    ID                          : 1
    Format                      : AVC
    Format/Info                 : Advanced Video Codec
    Format profile              : High@L4
    Format settings             : CABAC / 4 Ref Frames
    Format settings, CABAC      : Yes
    Format settings, Reference  : 4 frames
    Codec ID                    : V_MPEG4/ISO/AVC
    Duration                    : 46 min 37 s
    Bit rate                    : 10.7 Mb/s
    Width                       : 1 920 pixels
    Height                      : 1 080 pixels
    Display aspect ratio        : 16:9
    Frame rate mode             : Constant
    Frame rate                  : 23.976 (24000/1001) FPS
    Color space                 : YUV
    Chroma subsampling          : 4:2:0
    Bit depth                   : 8 bits
    Scan type                   : Progressive
    Bits/(Pixel*Frame)          : 0.215
    Stream size                 : 3.48 GiB (91%)
    Title                       : CinemaniaHDD
    Language                    : English
    Default                     : Yes
    Forced                      : No
    Color range                 : Limited
    Color primaries             : BT.709
    Transfer characteristics    : BT.709
    Matrix coefficients         : BT.709

    Audio #1
    ID                          : 2
    Format                      : AC-3
    Format/Info                 : Audio Coding 3
    Commercial name             : Dolby Digital
    Codec ID                    : A_AC3
    Duration                    : 46 min 37 s
    Bit rate mode               : Constant
    Bit rate                    : 384 kb/s
    Channel(s)                  : 6 channels
    Channel layout              : L R C LFE Ls Rs
    Sampling rate               : 48.0 kHz
    Frame rate                  : 31.250 FPS (1536 SPF)
    Compression mode            : Lossy
    Stream size                 : 128 MiB (3%)
    Title                       : Español latino [CinemaniaHDD]
    Language                    : Spanish
    Service kind                : Complete Main
    Default                     : Yes
    Forced                      : No

    Audio #2
    ID                          : 3
    Format                      : E-AC-3
    Format/Info                 : Enhanced AC-3
    Commercial name             : Dolby Digital Plus
    Codec ID                    : A_EAC3
    Duration                    : 46 min 37 s
    Bit rate mode               : Constant
    Bit rate                    : 640 kb/s
    Channel(s)                  : 6 channels
    Channel layout              : L R C LFE Ls Rs
    Sampling rate               : 48.0 kHz
    Frame rate                  : 31.250 FPS (1536 SPF)
    Compression mode            : Lossy
    Delay relative to video     : 9 ms
    Stream size                 : 213 MiB (5%)
    Title                       : Inglés [CinemaniaHDD]
    Language                    : English
    Service kind                : Complete Main
    Default                     : No
    Forced                      : No

    Text #1
    ID                          : 4
    Format                      : UTF-8
    Codec ID                    : S_TEXT/UTF8
    Codec ID/Info               : UTF-8 Plain Text
    Duration                    : 43 min 51 s
    Bit rate                    : 3 b/s
    Count of elements           : 16
    Stream size                 : 1.04 KiB (0%)
    Title                       : Forzados [CinemaniaHDD]
    Language                    : Spanish
    Default                     : Yes
    Forced                      : Yes

    Text #2
    ID                          : 5
    Format                      : UTF-8
    Codec ID                    : S_TEXT/UTF8
    Codec ID/Info               : UTF-8 Plain Text
    Duration                    : 46 min 26 s
    Bit rate                    : 57 b/s
    Count of elements           : 497
    Stream size                 : 19.6 KiB (0%)
    Title                       : Español latino [CinemaniaHDD]
    Language                    : Spanish
    Default                     : No
    Forced                      : No

    Text #3
    ID                          : 6
    Format                      : UTF-8
    Codec ID                    : S_TEXT/UTF8
    Codec ID/Info               : UTF-8 Plain Text
    Duration                    : 46 min 35 s
    Bit rate                    : 68 b/s
    Count of elements           : 828
    Stream size                 : 23.3 KiB (0%)
    Title                       : Inglés [CinemaniaHDD]
    Language                    : English
    Default                     : No
    Forced                      : No

     

  • Peso: 3.82 GiB Aprox ---- 35 GiB in 10 Chapters.

Sinopsis

Los Ángeles, 1983. Drama sobre el origen de la epidemia del crack y su devastador impacto en la cultura como la conocemos. La historia sigue a varios personajes en un violento rumbo de colisión, incluyendo a Franklin Saint, un joven negro con gran visión para los negocios; Gustavo Zapata, un luchador mexicano atrapado en una lucha de poder dentro de un cartel; Teddy McDonald, un agente de la CIA que huye de un oscuro pasado e inicia una operación extraoficial para financiar a los contras nicaragüenses; y Lucía Villanueva, la calmada hija de un capo mexicano del crimen.

Ficha técnica

Video trailer de la película

Enlaces de descarga

Rip de Bluray

Descargar Snowfall (2018) Segunda Temporada AMZN WEB-DL 1080p Latino




Aportes de DPeliculasHDmega la pass es:dpeliculashdmega.org Aportes de CinemaniaHD la pass es:cinemaniahdd.com
Guardado en : Crimen , Drama , Series

Películas relacionadas

  • Zola (2020) HD 1080p Latino

    Zola (2020) HD 1080p Latino

    2020
    Zola (2020) HD 1080p Latino

    1h 26m 2020

    Descargar Zola (2020) HD 1080p Latino. Una camarera accede a acompañar a una bailarina exótica, su...

    Director: Sheri Davani

    Género: Comedia

    Actores: Ts Madison

  • Zola (2020) PLACEBO Full HD 1080p Latino

    Zola (2020) PLACEBO Full HD 1080p Latino

    2020
    Zola (2020) PLACEBO Full HD 1080p Latino

    1h 26m 2020

    Descargar Zola (2020) PLACEBO Full HD 1080p Latino. Una camarera accede a acompañar a una bailarina...

    Director: Sheri Davani

    Género: Comedia

    Actores: Ts Madison

  • Zola (2020) REMUX 1080p Latino

    Zola (2020) REMUX 1080p Latino

    2020
    Zola (2020) REMUX 1080p Latino

    1h 26m 2020

    Descargar Zola (2020) REMUX 1080p Latino. Una camarera accede a acompañar a una bailarina exótica,...

    Director: Sheri Davani

    Género: Comedia

    Actores: Ts Madison

descargar Snowfall (2018) Segunda Temporada AMZN WEB-DL 1080p Latino 1080p 1080p gratis, Snowfall (2018) Segunda Temporada AMZN WEB-DL 1080p Latino 1080p mega 1 link, Snowfall (2018) Segunda Temporada AMZN WEB-DL 1080p Latino 1080p serie completa, descargar Snowfall (2018) Segunda Temporada AMZN WEB-DL 1080p Latino 1080p gratis en mega.

Snowfall (2018) Segunda Temporada AMZN WEB-DL 1080p Latino pelicula full hd, Snowfall (2018) Segunda Temporada AMZN WEB-DL 1080p Latino mega latino, Snowfall (2018) Segunda Temporada AMZN WEB-DL 1080p Latino 4k latino, Snowfall (2018) Segunda Temporada AMZN WEB-DL 1080p Latino pelicula completa, Snowfall (2018) Segunda Temporada AMZN WEB-DL 1080p Latino descargar gratis, descargar Snowfall (2018) Segunda Temporada AMZN WEB-DL 1080p Latino pelicula latino, Snowfall (2018) Segunda Temporada AMZN WEB-DL 1080p Latino 1 link mega, Snowfall (2018) Segunda Temporada AMZN WEB-DL 1080p Latino 1 link google drive, Snowfall (2018) Segunda Temporada AMZN WEB-DL 1080p Latino hd 1080p latino.
Comentarios 0