×

¿Problemas para descargar con Mozilla, EDGE? Deshabilita la opción "Abrir vinculos en una pestaña nueva" tal como lo muestra ésta imagen.

Snowfall (2017) Primera Temporada AMZN WEB-DL 1080p Latino

1.104 vistas

Información de Snowfall (2017) Primera Temporada AMZN WEB-DL 1080p Latino

Datos de la película

  • Calidad: 1080p
  • Audio: Español Latino AC3 5.1 WEB-DL - Ingles AC3 5.1 WEB-DL
  • Subtitulos: Español Latino SRT- FORZADOS SRT
  • Resolución: 1920x1080
  • Formato: MKV
  • Codec: H.264
  • Encoder: cinemaniahdd
  • Mediainfo: Clic para Mostrar Datos Ver
  • Snowfall T01E01 AMZN WEB-DL 1080p Latino [CNMNHDD].mkv
    Format                      : Matroska
    Format version              : Version 4
    File size                   : 4.86 GiB
    Duration                    : 57 min 49 s
    Overall bit rate mode       : Variable
    Overall bit rate            : 12.0 Mb/s
    Movie name                  : Snowfall T01E01 - CinemaniaHDD.Net
    Encoded date                : UTC 2021-09-01 23:36:54
    Writing application         : mkvmerge v56.1.0 ('My Friend') 64-bit
    Writing library             : libebml v1.4.2 + libmatroska v1.6.4

    Video
    ID                          : 1
    Format                      : AVC
    Format/Info                 : Advanced Video Codec
    Format profile              : High@L4
    Format settings             : CABAC / 4 Ref Frames
    Format settings, CABAC      : Yes
    Format settings, Reference  : 4 frames
    Format settings, GOP        : M=2, N=15
    Codec ID                    : V_MPEG4/ISO/AVC
    Duration                    : 57 min 49 s
    Bit rate mode               : Variable
    Bit rate                    : 11.0 Mb/s
    Maximum bit rate            : 7 087 kb/s
    Width                       : 1 920 pixels
    Height                      : 1 080 pixels
    Display aspect ratio        : 16:9
    Frame rate mode             : Constant
    Frame rate                  : 23.976 (24000/1001) FPS
    Color space                 : YUV
    Chroma subsampling          : 4:2:0
    Bit depth                   : 8 bits
    Scan type                   : Progressive
    Bits/(Pixel*Frame)          : 0.221
    Stream size                 : 4.44 GiB (91%)
    Title                       : CinemaniaHDD
    Language                    : English
    Default                     : Yes
    Forced                      : No
    Color range                 : Limited
    Color primaries             : BT.709
    Transfer characteristics    : BT.709
    Matrix coefficients         : BT.709

    Audio #1
    ID                          : 2
    Format                      : AC-3
    Format/Info                 : Audio Coding 3
    Commercial name             : Dolby Digital
    Codec ID                    : A_AC3
    Duration                    : 57 min 49 s
    Bit rate mode               : Constant
    Bit rate                    : 384 kb/s
    Channel(s)                  : 6 channels
    Channel layout              : L R C LFE Ls Rs
    Sampling rate               : 48.0 kHz
    Frame rate                  : 31.250 FPS (1536 SPF)
    Compression mode            : Lossy
    Stream size                 : 159 MiB (3%)
    Title                       : Español latino [CinemaniaHDD]
    Language                    : Spanish
    Service kind                : Complete Main
    Default                     : Yes
    Forced                      : No

    Audio #2
    ID                          : 3
    Format                      : E-AC-3
    Format/Info                 : Enhanced AC-3
    Commercial name             : Dolby Digital Plus
    Codec ID                    : A_EAC3
    Duration                    : 57 min 49 s
    Bit rate mode               : Constant
    Bit rate                    : 640 kb/s
    Channel(s)                  : 6 channels
    Channel layout              : L R C LFE Ls Rs
    Sampling rate               : 48.0 kHz
    Frame rate                  : 31.250 FPS (1536 SPF)
    Compression mode            : Lossy
    Delay relative to video     : 167 ms
    Stream size                 : 265 MiB (5%)
    Title                       : Inglés [CinemaniaHDD]
    Language                    : English
    Service kind                : Complete Main
    Default                     : No
    Forced                      : No

    Text #1
    ID                          : 4
    Format                      : UTF-8
    Codec ID                    : S_TEXT/UTF8
    Codec ID/Info               : UTF-8 Plain Text
    Duration                    : 45 min 58 s
    Bit rate                    : 0 b/s
    Count of elements           : 3
    Stream size                 : 84.0 Bytes (0%)
    Title                       : Forzados [CinemaniaHDD]
    Language                    : Spanish
    Default                     : Yes
    Forced                      : Yes

    Text #2
    ID                          : 5
    Format                      : UTF-8
    Codec ID                    : S_TEXT/UTF8
    Codec ID/Info               : UTF-8 Plain Text
    Duration                    : 57 min 39 s
    Bit rate                    : 50 b/s
    Count of elements           : 626
    Stream size                 : 21.4 KiB (0%)
    Title                       : Español latino [CinemaniaHDD]
    Language                    : Spanish
    Default                     : No
    Forced                      : No

    Text #3
    ID                          : 6
    Format                      : UTF-8
    Codec ID                    : S_TEXT/UTF8
    Codec ID/Info               : UTF-8 Plain Text
    Duration                    : 57 min 36 s
    Bit rate                    : 70 b/s
    Count of elements           : 1055
    Stream size                 : 29.8 KiB (0%)
    Title                       : Inglés [CinemaniaHDD]
    Language                    : English
    Default                     : No
    Forced                      : No

     

  • Peso: 4.86 GiB Aprox ---- 40 GiB in 10 Chapters.

Sinopsis

Los Ángeles, 1983. Drama sobre el origen de la epidemia del crack y su devastador impacto en la cultura como la conocemos. La historia sigue a varios personajes en un violento rumbo de colisión, incluyendo a Franklin Saint, un joven negro con gran visión para los negocios; Gustavo Zapata, un luchador mexicano atrapado en una lucha de poder dentro de un cartel; Teddy McDonald, un agente de la CIA que huye de un oscuro pasado e inicia una operación extraoficial para financiar a los contras nicaragüenses; y Lucía Villanueva, la calmada hija de un capo mexicano del crimen.

Ficha técnica

Video trailer de la película

Enlaces de descarga

Rip de Bluray

Descargar Snowfall (2017) Primera Temporada AMZN WEB-DL 1080p Latino




Aportes de DPeliculasHDmega la pass es:dpeliculashdmega.org Aportes de CinemaniaHD la pass es:cinemaniahdd.com Aportes recientes:cinemaniahdd.net
Guardado en : Crimen , Drama , Series

Películas relacionadas

  • Sundown (2022) AMZN WEB-DL 1080p Latino

    Sundown (2022) AMZN WEB-DL 1080p Latino

    2022
    Sundown (2022) AMZN WEB-DL 1080p Latino

    1h 22m 2022

    "Sundown" Una familia británica de vacaciones en un resort en Acapulco recibe una inesperada llamada...

    Director: Michel Franco

    Género: Drama

    Actores: Victor Hugo

  • Doctor Who (2023) Temporada 14 WEB-DL 1080p Latino

    Doctor Who (2023) Temporada 14 WEB-DL 1080p Latino

    Doctor Who (2023) Temporada 14 WEB-DL 1080p Latino

    1h 0m

    El Doctor se ve atrapado en una pelea a muerte cuando una nave espacial se estrella en Londres. Pero...

    Director: Sydney Newman

    Género: Action & Adventure

    Actores: David Tennant

descargar Snowfall (2017) Primera Temporada AMZN WEB-DL 1080p Latino 1080p 1080p gratis, Snowfall (2017) Primera Temporada AMZN WEB-DL 1080p Latino 1080p mega 1 link, Snowfall (2017) Primera Temporada AMZN WEB-DL 1080p Latino 1080p serie completa, descargar Snowfall (2017) Primera Temporada AMZN WEB-DL 1080p Latino 1080p gratis en mega.

Snowfall (2017) Primera Temporada AMZN WEB-DL 1080p Latino pelicula full hd, Snowfall (2017) Primera Temporada AMZN WEB-DL 1080p Latino mega latino, Snowfall (2017) Primera Temporada AMZN WEB-DL 1080p Latino 4k latino, Snowfall (2017) Primera Temporada AMZN WEB-DL 1080p Latino pelicula completa, Snowfall (2017) Primera Temporada AMZN WEB-DL 1080p Latino descargar gratis, descargar Snowfall (2017) Primera Temporada AMZN WEB-DL 1080p Latino pelicula latino, Snowfall (2017) Primera Temporada AMZN WEB-DL 1080p Latino 1 link mega, Snowfall (2017) Primera Temporada AMZN WEB-DL 1080p Latino 1 link google drive, Snowfall (2017) Primera Temporada AMZN WEB-DL 1080p Latino hd 1080p latino.
Comentarios 0