×

¿Problemas para descargar con Mozilla, EDGE? Deshabilita la opción "Abrir vinculos en una pestaña nueva" tal como lo muestra ésta imagen.

The Snow Queen: Mirrorlands (2018) 1080p Latino

921 vistas

Información de The Snow Queen: Mirrorlands (2018) 1080p Latino

Datos de la película

  • Calidad: 1080p
  • Audio: Se especifica abajo de la Sinopsis
  • Subtitulos: No
  • Resolución: 1920x802p
  • Formato: MKV
  • Codec: H.264
  • Encoder: CinefiloCool
  • Mediainfo: Clic para Mostrar Datos Ver
  • The Snow Queen Mirrorlands (2018) 1080p Latino-CMHDD.mkv
    Format                      : Matroska
    Format version              : Version 4
    File size                   : 2.61 GiB
    Duration                    : 1 h 27 min
    Overall bit rate            : 4 276 kb/s
    Movie name                  : The Snow Queen: Mirror Lands (2018) CinemaniaHDD.Net
    Encoded date                : UTC 2020-04-09 20:01:08
    Writing application         : mkvmerge v42.0.0 ('Overtime') 64-bit
    Writing library             : libebml v1.3.10 + libmatroska v1.5.2

    Video
    ID                          : 1
    Format                      : AVC
    Format/Info                 : Advanced Video Codec
    Format profile              : High@L4.1
    Format settings             : CABAC / 5 Ref Frames
    Format settings, CABAC      : Yes
    Format settings, ReFrames   : 5 frames
    Codec ID                    : V_MPEG4/ISO/AVC
    Duration                    : 1 h 27 min
    Bit rate                    : 3 500 kb/s
    Width                       : 1 920 pixels
    Height                      : 802 pixels
    Display aspect ratio        : 2.40:1
    Frame rate mode             : Constant
    Frame rate                  : 24.000 FPS
    Color space                 : YUV
    Chroma subsampling          : 4:2:0
    Bit depth                   : 8 bits
    Scan type                   : Progressive
    Bits/(Pixel*Frame)          : 0.095
    Stream size                 : 2.07 GiB (79%)
    Title                       : HD1080p [Bluray]
    Writing library             : x264 core 157 r2935 545de2f
    Encoding settings           : cabac=1 / ref=5 / deblock=1:1:1 / analyse=0x3:0x113 / me=hex / subme=8 / psy=1 / psy_rd=0.40:0.00 / mixed_ref=1 / me_range=16 / chroma_me=1 / trellis=2 / 8x8dct=1 / cqm=0 / deadzone=21,11 / fast_pskip=1 / chroma_qp_offset=-2 / threads=25 / lookahead_threads=4 / sliced_threads=0 / nr=0 / decimate=1 / interlaced=0 / bluray_compat=0 / constrained_intra=0 / bframes=5 / b_pyramid=2 / b_adapt=1 / b_bias=0 / direct=3 / weightb=1 / open_gop=0 / weightp=2 / keyint=240 / keyint_min=24 / scenecut=40 / intra_refresh=0 / rc_lookahead=50 / rc=abr / mbtree=1 / bitrate=3500 / ratetol=1.0 / qcomp=0.60 / qpmin=0 / qpmax=69 / qpstep=4 / vbv_maxrate=62500 / vbv_bufsize=78125 / nal_hrd=none / filler=0 / ip_ratio=1.40 / aq=1:0.60
    Default                     : Yes
    Forced                      : Yes
    Color range                 : Limited
    Color primaries             : BT.709
    Transfer characteristics    : BT.709
    Matrix coefficients         : BT.709

    Audio #1
    ID                          : 2
    Format                      : AC-3
    Format/Info                 : Audio Coding 3
    Commercial name             : Dolby Digital
    Codec ID                    : A_AC3
    Duration                    : 1 h 27 min
    Bit rate mode               : Constant
    Bit rate                    : 448 kb/s
    Channel(s)                  : 6 channels
    Channel layout              : L R C LFE Ls Rs
    Sampling rate               : 48.0 kHz
    Frame rate                  : 31.250 FPS (1536 SPF)
    Bit depth                   : 16 bits
    Compression mode            : Lossy
    Delay relative to video     : 21 ms
    Stream size                 : 279 MiB (10%)
    Title                       : AC3_5.1_Web_Esp
    Language                    : Spanish
    Service kind                : Complete Main
    Default                     : Yes
    Forced                      : Yes

    Audio #2
    ID                          : 3
    Format                      : AC-3
    Format/Info                 : Audio Coding 3
    Commercial name             : Dolby Digital
    Codec ID                    : A_AC3
    Duration                    : 1 h 27 min
    Bit rate mode               : Constant
    Bit rate                    : 448 kb/s
    Channel(s)                  : 6 channels
    Channel layout              : L R C LFE Ls Rs
    Sampling rate               : 48.0 kHz
    Frame rate                  : 31.250 FPS (1536 SPF)
    Bit depth                   : 16 bits
    Compression mode            : Lossy
    Delay relative to video     : -5 ms
    Stream size                 : 281 MiB (10%)
    Title                       : AC3_5.1_Bluray_Rus
    Language                    : Russian
    Service kind                : Complete Main
    Default                     : No
    Forced                      : No

    Menu
    00:00:00.000                : :Chapter 1
    00:08:10.417                : :Chapter 2
    00:15:04.042                : :Chapter 3
    00:22:39.333                : :Chapter 4
    00:28:12.375                : :Chapter 5
    00:36:42.250                : :Chapter 6
    00:41:35.917                : :Chapter 7
    00:49:17.875                : :Chapter 8
    00:56:47.708                : :Chapter 9
    01:03:48.458                : :Chapter 10
    01:11:00.667                : :Chapter 11
    01:17:34.625                : :Chapter 12

  • Peso: 2.61 GiB

Sinopsis

Descargar The Snow Queen: Mirrorlands (2018) 1080p Latino. Gerda vive feliz junto a su hermano Kai y sus padres magos en el interior de una tierra próspera donde reina el rey Harald, un científico y genio inventor. Este, más partidario de las nuevas tecnologías que de los hechizos, ordena que todos los magos del Mundo de los Espejos se exilien a un lugar de donde no puedan escapar. Gerda es la única que puede salvar a su familia, aunque para ello deberá unir sus fuerzas con su antigua enemiga, la Reina de las Nieves.

Audio Español Latino AC3 5.1 WebDL – Ruso AC3 5.1 Bluray

Ficha técnica

Video trailer de la película

Enlaces de descarga

Rip de Bluray

Descargar The Snow Queen: Mirrorlands (2018) 1080p Latino




Aportes de DPeliculasHDmega la pass es:dpeliculashdmega.org Aportes de CinemaniaHD la pass es:cinemaniahdd.com

Películas relacionadas

  • Jaula Mental (2022) HD 1080p Latino

    Jaula Mental (2022) HD 1080p Latino

    2022
    Jaula Mental (2022) HD 1080p Latino

    1h 47m 2022

    Descargar Jaula Mental (2022) HD 1080p Latino. Cuando un asesino que imita otros crímenes comienza a...

    Director: Mauro Borrelli

    Género: Crimen

    Actores: Victoria Fox

  • Transfusion (2023) HD 1080p Latino

    Transfusion (2023) HD 1080p Latino

    2023
    Transfusion (2023) HD 1080p Latino

    1h 45m 2023

    Descargar Transfusion (2023) HD 1080p Latino. Un antiguo agente de las Fuerzas Especiales se ve empujado...

    Director: Matt Nable

    Género: Crimen

    Actores: Trystan Go

  • Gladiador (2000) EXTENDED CUT 1080p Latino

    Gladiador (2000) EXTENDED CUT 1080p Latino

    2000
    Gladiador (2000) EXTENDED CUT 1080p Latino

    2h 35m 2000

    Gladiador (2000) EXTENDED CUT 1080p Latino. Máximo, General de las Legiones Romanas, es querido por...

    Director: Ridley Scott

    Género: Acción

    Actores: Tony Curran

  • Gladiador (2000) EXTENDED CUT Full HD 1080p Latino

    Gladiador (2000) EXTENDED CUT Full HD 1080p Latino

    2000
    Gladiador (2000) EXTENDED CUT Full HD 1080p Latino

    2h 35m 2000

    Descargar Gladiador (2000) [Extended Cut] Full HD 1080p Latino. Máximo, General de las Legiones Romanas,...

    Director: Ridley Scott

    Género: Acción

    Actores: Tony Curran

descargar The Snow Queen: Mirrorlands (2018) 1080p Latino 1080p 1080p gratis, The Snow Queen: Mirrorlands (2018) 1080p Latino 1080p mega 1 link, The Snow Queen: Mirrorlands (2018) 1080p Latino 1080p pelicula completa, descargar The Snow Queen: Mirrorlands (2018) 1080p Latino 1080p gratis en mega.

The Snow Queen: Mirrorlands (2018) 1080p Latino pelicula full hd, The Snow Queen: Mirrorlands (2018) 1080p Latino mega latino, The Snow Queen: Mirrorlands (2018) 1080p Latino 4k latino, The Snow Queen: Mirrorlands (2018) 1080p Latino pelicula completa, The Snow Queen: Mirrorlands (2018) 1080p Latino descargar gratis, descargar The Snow Queen: Mirrorlands (2018) 1080p Latino pelicula latino, The Snow Queen: Mirrorlands (2018) 1080p Latino 1 link mega, The Snow Queen: Mirrorlands (2018) 1080p Latino 1 link google drive, The Snow Queen: Mirrorlands (2018) 1080p Latino hd 1080p latino.
Comentarios 0