×

¿Problemas para descargar con Mozilla, EDGE? Deshabilita la opción "Abrir vinculos en una pestaña nueva" tal como lo muestra ésta imagen.

The Snow Queen: Mirrorlands (2018) Full HD 1080p Latino

1.048 vistas

Información de The Snow Queen: Mirrorlands (2018) Full HD 1080p Latino

Datos de la película

  • Calidad: Full 1080p
  • Audio: Se especifica abajo de la Sinopsis
  • Subtitulos: No
  • Resolución: 1920x1080p
  • Formato: MKV
  • Codec: H.264
  • Encoder: CinefiloCool
  • Mediainfo: Clic para Mostrar Datos Ver
  • The Snow Queen Mirrorlands (2018) Full HD 1080p Latino-CMHDD.mkv
    Format                      : Matroska
    Format version              : Version 4
    File size                   : 3.58 GiB
    Duration                    : 1 h 27 min
    Overall bit rate            : 5 862 kb/s
    Movie name                  : The Snow Queen: Mirror Lands (2018) CinemaniaHDD.Net
    Encoded date                : UTC 2020-04-09 23:30:23
    Writing application         : mkvmerge v42.0.0 ('Overtime') 64-bit
    Writing library             : libebml v1.3.10 + libmatroska v1.5.2
    Attachments                 : CINEMANIAHD.png

    Video
    ID                          : 1
    Format                      : AVC
    Format/Info                 : Advanced Video Codec
    Format profile              : High@L4.1
    Format settings             : CABAC / 4 Ref Frames
    Format settings, CABAC      : Yes
    Format settings, ReFrames   : 4 frames
    Codec ID                    : V_MPEG4/ISO/AVC
    Duration                    : 1 h 27 min
    Bit rate                    : 3 905 kb/s
    Width                       : 1 920 pixels
    Height                      : 1 080 pixels
    Display aspect ratio        : 16:9
    Frame rate mode             : Constant
    Frame rate                  : 24.000 FPS
    Color space                 : YUV
    Chroma subsampling          : 4:2:0
    Bit depth                   : 8 bits
    Scan type                   : Progressive
    Bits/(Pixel*Frame)          : 0.078
    Stream size                 : 2.39 GiB (67%)
    Title                       : Full HD1080p [Bluray]
    Writing library             : x264 core 157 r2935 545de2f
    Encoding settings           : cabac=1 / ref=4 / deblock=1:1:1 / analyse=0x3:0x133 / me=tesa / subme=11 / psy=1 / psy_rd=0.40:0.00 / mixed_ref=1 / me_range=24 / chroma_me=1 / trellis=2 / 8x8dct=1 / cqm=0 / deadzone=21,11 / fast_pskip=0 / chroma_qp_offset=-2 / threads=34 / lookahead_threads=8 / sliced_threads=0 / nr=0 / decimate=1 / interlaced=0 / bluray_compat=0 / constrained_intra=0 / bframes=16 / b_pyramid=2 / b_adapt=2 / b_bias=0 / direct=3 / weightb=1 / open_gop=0 / weightp=2 / keyint=240 / keyint_min=24 / scenecut=40 / intra_refresh=0 / rc_lookahead=60 / rc=crf / mbtree=1 / crf=20.0 / qcomp=0.60 / qpmin=0 / qpmax=69 / qpstep=4 / vbv_maxrate=62500 / vbv_bufsize=78125 / crf_max=0.0 / nal_hrd=none / filler=0 / ip_ratio=1.40 / aq=1:0.60
    Default                     : Yes
    Forced                      : Yes
    Color range                 : Limited
    Color primaries             : BT.709
    Transfer characteristics    : BT.709
    Matrix coefficients         : BT.709

    Audio #1
    ID                          : 2
    Format                      : AC-3
    Format/Info                 : Audio Coding 3
    Commercial name             : Dolby Digital
    Codec ID                    : A_AC3
    Duration                    : 1 h 27 min
    Bit rate mode               : Constant
    Bit rate                    : 448 kb/s
    Channel(s)                  : 6 channels
    Channel layout              : L R C LFE Ls Rs
    Sampling rate               : 48.0 kHz
    Frame rate                  : 31.250 FPS (1536 SPF)
    Bit depth                   : 16 bits
    Compression mode            : Lossy
    Delay relative to video     : 26 ms
    Stream size                 : 279 MiB (8%)
    Title                       : AC3_5.1_Web_Esp
    Language                    : Spanish
    Service kind                : Complete Main
    Default                     : Yes
    Forced                      : Yes

    Audio #2
    ID                          : 3
    Format                      : DTS
    Format/Info                 : Digital Theater Systems
    Codec ID                    : A_DTS
    Duration                    : 1 h 27 min
    Bit rate mode               : Constant
    Bit rate                    : 1 509 kb/s
    Channel(s)                  : 6 channels
    Channel layout              : C L R Ls Rs LFE
    Sampling rate               : 48.0 kHz
    Frame rate                  : 93.750 FPS (512 SPF)
    Bit depth                   : 24 bits
    Compression mode            : Lossy
    Stream size                 : 945 MiB (26%)
    Title                       : DTS_5.1_Bluray_Rus
    Language                    : Russian
    Default                     : No
    Forced                      : No

    Menu
    00:00:00.000                : en:Chapter 1
    00:08:10.416                : en:Chapter 2
    00:15:04.041                : en:Chapter 3
    00:22:39.333                : en:Chapter 4
    00:28:12.375                : en:Chapter 5
    00:36:42.250                : en:Chapter 6
    00:41:35.916                : en:Chapter 7
    00:49:17.875                : en:Chapter 8
    00:56:47.708                : en:Chapter 9
    01:03:48.458                : en:Chapter 10
    01:11:00.666                : en:Chapter 11
    01:17:34.625                : en:Chapter 12

  • Peso: 3.58 GiB

Sinopsis

Descargar The Snow Queen: Mirrorlands (2018) Full HD 1080p Latino. Gerda vive feliz junto a su hermano Kai y sus padres magos en el interior de una tierra próspera donde reina el rey Harald, un científico y genio inventor. Este, más partidario de las nuevas tecnologías que de los hechizos, ordena que todos los magos del Mundo de los Espejos se exilien a un lugar de donde no puedan escapar. Gerda es la única que puede salvar a su familia, aunque para ello deberá unir sus fuerzas con su antigua enemiga, la Reina de las Nieves.

Audio Español Latino AC3 5.1 WebDL – Ruso DTS 5.1 Bluray

Ficha técnica

Video trailer de la película

Enlaces de descarga

Rip de Bluray

Descargar The Snow Queen: Mirrorlands (2018) Full HD 1080p Latino




Aportes de DPeliculasHDmega la pass es:dpeliculashdmega.org Aportes de CinemaniaHD la pass es:cinemaniahdd.com

Películas relacionadas

descargar The Snow Queen: Mirrorlands (2018) Full HD 1080p Latino Full 1080p 1080p gratis, The Snow Queen: Mirrorlands (2018) Full HD 1080p Latino Full 1080p mega 1 link, The Snow Queen: Mirrorlands (2018) Full HD 1080p Latino Full 1080p pelicula completa, descargar The Snow Queen: Mirrorlands (2018) Full HD 1080p Latino Full 1080p gratis en mega.

The Snow Queen: Mirrorlands (2018) Full HD 1080p Latino pelicula full hd, The Snow Queen: Mirrorlands (2018) Full HD 1080p Latino mega latino, The Snow Queen: Mirrorlands (2018) Full HD 1080p Latino 4k latino, The Snow Queen: Mirrorlands (2018) Full HD 1080p Latino pelicula completa, The Snow Queen: Mirrorlands (2018) Full HD 1080p Latino descargar gratis, descargar The Snow Queen: Mirrorlands (2018) Full HD 1080p Latino pelicula latino, The Snow Queen: Mirrorlands (2018) Full HD 1080p Latino 1 link mega, The Snow Queen: Mirrorlands (2018) Full HD 1080p Latino 1 link google drive, The Snow Queen: Mirrorlands (2018) Full HD 1080p Latino hd 1080p latino.
Comentarios 0