×

¿Problemas para descargar con Mozilla, EDGE? Deshabilita la opción "Abrir vinculos en una pestaña nueva" tal como lo muestra ésta imagen.

Snitch (2013) REMUX 4K HDR Latino – CMHDD

166 vistas

Información de Snitch (2013) REMUX 4K HDR Latino – CMHDD

Datos de la película

  • Calidad: 4K HDR
  • Audio: Se especifica abajo de la Sinopsis
  • Subtitulos: Español Latino PGS
  • Resolución: 3840x2160p
  • Formato: MKV
  • Codec: HEVC
  • Encoder: Dracarys
  • Mediainfo: Clic para Mostrar Datos Ver
  • Format                      : Matroska
    Format version              : Version 4
    File size                   : 46.9 GiB
    Duration                    : 1 h 52 min
    Overall bit rate mode       : Variable
    Overall bit rate            : 59.7 Mb/s
    Movie name                  : Snitch (2013) REMUX 4K HDR Latino - CMHDD
    Encoded date                : UTC 2021-07-20 23:39:02
    Writing application         : mkvmerge v56.1.0 ('My Friend') 64-bit
    Writing library             : libebml v1.4.2 + libmatroska v1.6.4
    Cover                       : Yes
    Attachments                 : cover.jpg

    Video
    ID                          : 1
    ID in the original source m : 4113 (0x1011)
    Format                      : HEVC
    Format/Info                 : High Efficiency Video Coding
    Format profile              : Main 10@L5.1@High
    HDR format                  : SMPTE ST 2086, HDR10 compatible
    Codec ID                    : V_MPEGH/ISO/HEVC
    Duration                    : 1 h 52 min
    Bit rate                    : 55.0 Mb/s
    Width                       : 3 840 pixels
    Height                      : 2 160 pixels
    Display aspect ratio        : 16:9
    Frame rate mode             : Constant
    Frame rate                  : 23.976 (24000/1001) FPS
    Color space                 : YUV
    Chroma subsampling          : 4:2:0 (Type 2)
    Bit depth                   : 10 bits
    Bits/(Pixel*Frame)          : 0.276
    Stream size                 : 43.1 GiB (92%)
    Writing library             : ATEME Titan File 3.7.9 (4.7.9.0)
    Default                     : Yes
    Forced                      : No
    Color range                 : Limited
    Color primaries             : BT.2020
    Transfer characteristics    : PQ
    Matrix coefficients         : BT.2020 non-constant
    Mastering display color pri : Display P3
    Mastering display luminance : min: 0.0000 cd/m2, max: 1000 cd/m2
    Maximum Content Light Level : 335 cd/m2
    Maximum Frame-Average Light : 143 cd/m2
    Original source medium      : Blu-ray

    Audio #1
    ID                          : 2
    ID in the original source m : 4352 (0x1100)
    Format                      : MLP FBA 16-ch
    Format/Info                 : Meridian Lossless Packing FBA with 16-channel presentation
    Commercial name             : Dolby TrueHD with Dolby Atmos
    Codec ID                    : A_TRUEHD
    Duration                    : 1 h 52 min
    Bit rate mode               : Variable
    Bit rate                    : 3 413 kb/s
    Maximum bit rate            : 6 894 kb/s
    Channel(s)                  : 8 channels
    Channel layout              : L R C LFE Ls Rs Lb Rb
    Sampling rate               : 48.0 kHz
    Frame rate                  : 1 200.000 FPS (40 SPF)
    Compression mode            : Lossless
    Stream size                 : 2.68 GiB (6%)
    Language                    : English
    Default                     : No
    Forced                      : No
    Original source medium      : Blu-ray
    Number of dynamic objects   : 15
    Bed channel count           : 1 channel
    Bed channel configuration   : LFE

    Audio #2
    ID                          : 3
    ID in the original source m : 4352 (0x1100)
    Format                      : AC-3
    Format/Info                 : Audio Coding 3
    Commercial name             : Dolby Digital
    Codec ID                    : A_AC3
    Duration                    : 1 h 52 min
    Bit rate mode               : Constant
    Bit rate                    : 640 kb/s
    Channel(s)                  : 6 channels
    Channel layout              : L R C LFE Ls Rs
    Sampling rate               : 48.0 kHz
    Frame rate                  : 31.250 FPS (1536 SPF)
    Compression mode            : Lossy
    Stream size                 : 514 MiB (1%)
    Language                    : English
    Service kind                : Complete Main
    Default                     : No
    Forced                      : No
    Original source medium      : Blu-ray

    Audio #3
    ID                          : 4
    ID in the original source m : 4354 (0x1102)
    Format                      : AC-3
    Format/Info                 : Audio Coding 3
    Commercial name             : Dolby Digital
    Codec ID                    : A_AC3
    Duration                    : 1 h 52 min
    Bit rate mode               : Constant
    Bit rate                    : 640 kb/s
    Channel(s)                  : 6 channels
    Channel layout              : L R C LFE Ls Rs
    Sampling rate               : 48.0 kHz
    Frame rate                  : 31.250 FPS (1536 SPF)
    Compression mode            : Lossy
    Stream size                 : 514 MiB (1%)
    Language                    : Spanish
    Service kind                : Complete Main
    Default                     : Yes
    Forced                      : No
    Original source medium      : Blu-ray

    Text
    ID                          : 5
    ID in the original source m : 4770 (0x12A2)
    Format                      : PGS
    Muxing mode                 : zlib
    Codec ID                    : S_HDMV/PGS
    Codec ID/Info               : Picture based subtitle format used on BDs/HD-DVDs
    Duration                    : 1 h 45 min
    Bit rate                    : 28.3 kb/s
    Count of elements           : 2326
    Stream size                 : 21.3 MiB (0%)
    Language                    : Spanish
    Default                     : No
    Forced                      : No
    Original source medium      : Blu-ray

    Menu
    00:00:00.000                : Chapter 01
    00:06:36.104                : Chapter 02
    00:12:13.315                : Chapter 03
    00:17:28.672                : Chapter 04
    00:25:34.366                : Chapter 05
    00:31:09.367                : Chapter 06
    00:35:46.769                : Chapter 07
    00:41:43.459                : Chapter 08
    00:47:40.941                : Chapter 09
    00:53:05.432                : Chapter 10
    01:01:11.125                : Chapter 11
    01:08:17.927                : Chapter 12
    01:14:55.032                : Chapter 13
    01:24:23.558                : Chapter 14
    01:28:54.662                : Chapter 15
    01:38:44.585                : Chapter 16

  • Peso: 46.9 GiB

Sinopsis

Un padre (Johnson) recibe un duro golpe cuando condenan a su hijo adolescente a a una pena de treinta años de cárcel por un delito relacionado con el narcotráfico. Para conseguir que reduzcan su condena, intenta ponerse en contacto con un importante traficante.

 

Latino: AC3 5.1  –  Ingles: TrueHD 7.1 + AC3 5.1

Ficha técnica

Video trailer de la película

Enlaces de descarga

Rip de Bluray

Descargar Snitch (2013) REMUX 4K HDR Latino – CMHDD


Aportes de DPeliculasHDmega la pass es:dpeliculashdmega.org Aportes de CinemaniaHD la pass es:cinemaniahdd.com
Guardado en : Acción , Drama , Suspenso

Películas relacionadas

  • El Ultimo Juego (2021) WEB-DL 1080p Latino

    El Ultimo Juego (2021) WEB-DL 1080p Latino

    2021
    El Ultimo Juego (2021) WEB-DL 1080p Latino

    1h 21m 2021

    Descargar El Ultimo Juego (2021) WEB-DL 1080p Latino. 6 extraños se despiertan dentro de una habitación...

    Director: John David Moffat IV

    Género: Drama

    Actores: Yasmin Irvine

  • DC Liga De Supermascotas (2022) HD 1080p Latino

    DC Liga De Supermascotas (2022) HD 1080p Latino

    2022
    DC Liga De Supermascotas (2022) HD 1080p Latino

    1h 45m 2022

    Descargar DC Liga De Supermascotas (2022) HD 1080p Latino. Krypto el Superperro y Superman son amigos...

    Director: Sam Levine

    Género: Acción

    Actores: Yvette Nicole Brown

  • Invitacion Al Infierno (2022) MA WEB-DL 1080p Latino

    Invitacion Al Infierno (2022) MA WEB-DL 1080p Latino

    2022
    Invitacion Al Infierno (2022) MA WEB-DL 1080p Latino

    1h 45m 2022

    Descargar Invitacion Al Infierno (2022) MA WEB-DL 1080p Latino. Tras la muerte de su madre y quedarse...

    Director: Jessica M. Thompson

    Género: Suspenso

    Actores: Virág Bárány

descargar Snitch (2013) REMUX 4K HDR Latino – CMHDD 4K HDR 1080p gratis, Snitch (2013) REMUX 4K HDR Latino – CMHDD 4K HDR mega 1 link, Snitch (2013) REMUX 4K HDR Latino – CMHDD 4K HDR pelicula completa, descargar Snitch (2013) REMUX 4K HDR Latino – CMHDD 4K HDR gratis en mega.

Snitch (2013) REMUX 4K HDR Latino – CMHDD pelicula full hd, Snitch (2013) REMUX 4K HDR Latino – CMHDD mega latino, Snitch (2013) REMUX 4K HDR Latino – CMHDD 4k latino, Snitch (2013) REMUX 4K HDR Latino – CMHDD pelicula completa, Snitch (2013) REMUX 4K HDR Latino – CMHDD descargar gratis, descargar Snitch (2013) REMUX 4K HDR Latino – CMHDD pelicula latino, Snitch (2013) REMUX 4K HDR Latino – CMHDD 1 link mega, Snitch (2013) REMUX 4K HDR Latino – CMHDD 1 link google drive, Snitch (2013) REMUX 4K HDR Latino – CMHDD hd 1080p latino.