×

¿Problemas para descargar con Mozilla, EDGE? Deshabilita la opción "Abrir vinculos en una pestaña nueva" tal como lo muestra ésta imagen.

Sniper: Assassin’s End (2020) REMUX 1080p Latino

171 vistas

Información de Sniper: Assassin’s End (2020) REMUX 1080p Latino

Datos de la película

  • Calidad: Full 1080p
  • Audio: Se especifica abajo de la Sinopsis
  • Subtitulos: Español Latino SRT- FORZADOS SRT
  • Resolución: 1920x1080
  • Formato: MKV
  • Codec: H.264
  • Encoder: cinemaniahdd
  • Mediainfo: Clic para Mostrar Datos Ver
  • Sniper. Assassin's End (2020) REMUX 1080p Latino [CNMNHDD].mkv
    Format                      : Matroska
    Format version              : Version 4
    File size                   : 19.2 GiB
    Duration                    : 1 h 35 min
    Overall bit rate mode       : Variable
    Overall bit rate            : 28.9 Mb/s
    Movie name                  : Sniper. Assassin's End (2020) REMUX - CinemaniaHDD.Net
    Encoded date                : UTC 2021-04-06 00:01:12
    Writing application         : mkvmerge v51.0.0 ('I Wish') 64-bit
    Writing library             : libebml v1.4.0 + libmatroska v1.6.2

    Video
    ID                          : 1
    Format                      : AVC
    Format/Info                 : Advanced Video Codec
    Format profile              : High@L4.1
    Format settings             : CABAC / 2 Ref Frames
    Format settings, CABAC      : Yes
    Format settings, Reference  : 2 frames
    Codec ID                    : V_MPEG4/ISO/AVC
    Duration                    : 1 h 35 min
    Bit rate mode               : Variable
    Bit rate                    : 24.8 Mb/s
    Width                       : 1 920 pixels
    Height                      : 1 080 pixels
    Display aspect ratio        : 16:9
    Frame rate mode             : Constant
    Frame rate                  : 23.976 (24000/1001) FPS
    Color space                 : YUV
    Chroma subsampling          : 4:2:0
    Bit depth                   : 8 bits
    Scan type                   : Progressive
    Bits/(Pixel*Frame)          : 0.500
    Stream size                 : 16.5 GiB (86%)
    Title                       : CinemaniaHDD
    Language                    : English
    Default                     : Yes
    Forced                      : No

    Audio #1
    ID                          : 2
    Format                      : AC-3
    Format/Info                 : Audio Coding 3
    Commercial name             : Dolby Digital
    Codec ID                    : A_AC3
    Duration                    : 1 h 35 min
    Bit rate mode               : Constant
    Bit rate                    : 384 kb/s
    Channel(s)                  : 2 channels
    Channel layout              : L R
    Sampling rate               : 48.0 kHz
    Frame rate                  : 31.250 FPS (1536 SPF)
    Compression mode            : Lossy
    Stream size                 : 261 MiB (1%)
    Title                       : Español latino [CinemaniaHDD]
    Language                    : Spanish
    Service kind                : Complete Main
    Default                     : Yes
    Forced                      : No

    Audio #2
    ID                          : 3
    Format                      : DTS XLL
    Format/Info                 : Digital Theater Systems
    Commercial name             : DTS-HD Master Audio
    Codec ID                    : A_DTS
    Duration                    : 1 h 35 min
    Bit rate mode               : Variable
    Bit rate                    : 2 155 kb/s
    Channel(s)                  : 6 channels
    Channel layout              : C L R Ls Rs LFE
    Sampling rate               : 48.0 kHz
    Frame rate                  : 93.750 FPS (512 SPF)
    Bit depth                   : 16 bits
    Compression mode            : Lossless
    Stream size                 : 1.43 GiB (7%)
    Title                       : Inglés - DTS-HD [CinemaniaHDD]
    Language                    : English
    Default                     : No
    Forced                      : No

    Audio #3
    ID                          : 4
    Format                      : DTS
    Format/Info                 : Digital Theater Systems
    Codec ID                    : A_DTS
    Duration                    : 1 h 35 min
    Bit rate mode               : Constant
    Bit rate                    : 1 509 kb/s
    Channel(s)                  : 6 channels
    Channel layout              : C L R Ls Rs LFE
    Sampling rate               : 48.0 kHz
    Frame rate                  : 93.750 FPS (512 SPF)
    Bit depth                   : 24 bits
    Compression mode            : Lossy
    Stream size                 : 1.00 GiB (5%)
    Title                       : Inglés - DTS [CinemaniaHDD]
    Language                    : English
    Default                     : No
    Forced                      : No

    Text #1
    ID                          : 5
    Format                      : UTF-8
    Codec ID                    : S_TEXT/UTF8
    Codec ID/Info               : UTF-8 Plain Text
    Duration                    : 1 h 6 min
    Bit rate                    : 0 b/s
    Count of elements           : 15
    Stream size                 : 331 Bytes (0%)
    Title                       : Forzados [CinemaniaHDD]
    Language                    : Spanish
    Default                     : Yes
    Forced                      : Yes

    Text #2
    ID                          : 6
    Format                      : UTF-8
    Codec ID                    : S_TEXT/UTF8
    Codec ID/Info               : UTF-8 Plain Text
    Duration                    : 1 h 30 min
    Bit rate                    : 40 b/s
    Count of elements           : 795
    Stream size                 : 26.8 KiB (0%)
    Title                       : Español latino [CinemaniaHDD]
    Language                    : Spanish
    Default                     : No
    Forced                      : No

    Text #3
    ID                          : 7
    Format                      : UTF-8
    Codec ID                    : S_TEXT/UTF8
    Codec ID/Info               : UTF-8 Plain Text
    Duration                    : 1 h 29 min
    Bit rate                    : 49 b/s
    Count of elements           : 901
    Stream size                 : 32.7 KiB (0%)
    Title                       : Inglés [CinemaniaHDD]
    Language                    : English
    Default                     : No
    Forced                      : No

    Menu
    00:00:00.000                : en:Chapter 1
    00:06:06.783                : en:Chapter 2
    00:13:02.073                : en:Chapter 3
    00:19:36.592                : en:Chapter 4
    00:25:37.745                : en:Chapter 5
    00:31:26.593                : en:Chapter 6
    00:37:11.938                : en:Chapter 7
    00:42:04.480                : en:Chapter 8
    00:47:22.715                : en:Chapter 9
    00:53:11.313                : en:Chapter 10
    01:01:50.916                : en:Chapter 11
    01:05:07.320                : en:Chapter 12
    01:08:12.672                : en:Chapter 13
    01:12:33.516                : en:Chapter 14
    01:19:43.320                : en:Chapter 15
    01:28:07.949                : en:Chapter 16

     

  • Peso: 19.2 GiB

Sinopsis

El francotirador de operaciones especiales Brandon Beckett es el principal sospechoso del asesinato de un dignatario extranjero en la víspera de la firma de un acuerdo comercial de alto perfil con los Estados Unidos. Beckett, que escapa por poco de la muerte, se da cuenta de que puede haber un agente oscuro trabajando dentro del gobierno, y se asocia con la única persona en la que puede confiar: su padre, el legendario sargento de francotiradores. Thomas Beckett. Ambos Becketts huyen de la CIA, mercenarios rusos y Lady Death, una asesina entrenada por Yakuza con habilidades de francotirador que rivaliza con ambos francotiradores legendarios.

 Español Latino AC3 2.0 WEB-DL – Ingles DTS-HD 5.1 + Core BD

Ficha técnica

  • Titulo original: Sniper: Assassin's End
  • Fecha de lanzamiento: 15-06-2020 (United States of America)
  • Director: Kaare Andrews
  • Género: Acción, Remux

Video trailer de la película

Enlaces de descarga

Rip de Bluray

Descargar Sniper: Assassin’s End (2020) REMUX 1080p Latino




Aportes de DPeliculasHDmega la pass es:dpeliculashdmega.org Aportes de CinemaniaHD la pass es:cinemaniahdd.com
Guardado en : Acción , Remux

Películas relacionadas

  • Wire Room (2022) HD 1080p Latino

    Wire Room (2022) HD 1080p Latino

    2022
    Wire Room (2022) HD 1080p Latino

    1h 37m 2022

    Descargar Wire Room (2022) HD 1080p Latino. Mientras está de servicio en la sala de cables, un agente...

    Director: Matt Eskandari

    Género: Acción

    Actores: Texas Battle

  • Wire Room (2022) PLACEBO Full HD 1080p Latino

    Wire Room (2022) PLACEBO Full HD 1080p Latino

    2022
    Wire Room (2022) PLACEBO Full HD 1080p Latino

    1h 37m 2022

    Descargar Wire Room (2022) PLACEBO Full HD 1080p Latino. Mientras está de servicio en la sala de cables,...

    Director: Matt Eskandari

    Género: Acción

    Actores: Texas Battle

  • Wire Room (2022) REMUX 1080p Latino

    Wire Room (2022) REMUX 1080p Latino

    2022
    Wire Room (2022) REMUX 1080p Latino

    1h 37m 2022

    Descargar Wire Room (2022) REMUX 1080p Latino. Mientras está de servicio en la sala de cables, un agente...

    Director: Matt Eskandari

    Género: Acción

    Actores: Texas Battle

descargar Sniper: Assassin’s End (2020) REMUX 1080p Latino Full 1080p 1080p gratis, Sniper: Assassin’s End (2020) REMUX 1080p Latino Full 1080p mega 1 link, Sniper: Assassin’s End (2020) REMUX 1080p Latino Full 1080p pelicula completa, descargar Sniper: Assassin’s End (2020) REMUX 1080p Latino Full 1080p gratis en mega.

Sniper: Assassin’s End (2020) REMUX 1080p Latino pelicula full hd, Sniper: Assassin’s End (2020) REMUX 1080p Latino mega latino, Sniper: Assassin’s End (2020) REMUX 1080p Latino 4k latino, Sniper: Assassin’s End (2020) REMUX 1080p Latino pelicula completa, Sniper: Assassin’s End (2020) REMUX 1080p Latino descargar gratis, descargar Sniper: Assassin’s End (2020) REMUX 1080p Latino pelicula latino, Sniper: Assassin’s End (2020) REMUX 1080p Latino 1 link mega, Sniper: Assassin’s End (2020) REMUX 1080p Latino 1 link google drive, Sniper: Assassin’s End (2020) REMUX 1080p Latino hd 1080p latino.
Comentarios 0