×

¿Problemas para descargar con Mozilla, EDGE? Deshabilita la opción "Abrir vinculos en una pestaña nueva" tal como lo muestra ésta imagen.

Sniper: Assassin’s End (2020) HD 1080p Latino

179 vistas

Información de Sniper: Assassin’s End (2020) HD 1080p Latino

Datos de la película

  • Calidad: 1080p
  • Audio: Se especifica abajo de la Sinopsis
  • Subtitulos: Español Latino SRT- FORZADOS SRT
  • Resolución: 1920x800
  • Formato: MKV
  • Codec: H.264
  • Encoder: cinemaniahdd
  • Mediainfo: Clic para Mostrar Datos Ver
  • Sniper. Assassin's End (2020) HD 1080p Latino [CNMNHDD].mkv
    Format                      : Matroska
    Format version              : Version 4
    File size                   : 2.21 GiB
    Duration                    : 1 h 35 min
    Overall bit rate            : 3 333 kb/s
    Movie name                  : Sniper. Assassin's End (2020) HD - CinemaniaHDD.Net
    Encoded date                : UTC 2021-04-06 00:45:44
    Writing application         : mkvmerge v51.0.0 ('I Wish') 64-bit
    Writing library             : libebml v1.4.0 + libmatroska v1.6.2

    Video
    ID                          : 1
    Format                      : AVC
    Format/Info                 : Advanced Video Codec
    Format profile              : High@L4.1
    Format settings             : CABAC / 4 Ref Frames
    Format settings, CABAC      : Yes
    Format settings, Reference  : 4 frames
    Codec ID                    : V_MPEG4/ISO/AVC
    Duration                    : 1 h 35 min
    Bit rate                    : 2 500 kb/s
    Width                       : 1 920 pixels
    Height                      : 800 pixels
    Display aspect ratio        : 2.40:1
    Frame rate mode             : Constant
    Frame rate                  : 23.976 (23976/1000) FPS
    Color space                 : YUV
    Chroma subsampling          : 4:2:0
    Bit depth                   : 8 bits
    Scan type                   : Progressive
    Bits/(Pixel*Frame)          : 0.068
    Stream size                 : 1.66 GiB (75%)
    Title                       : CinemaniaHDD
    Writing library             : x264 core 152 r2851M ba24899
    Encoding settings           : cabac=1 / ref=4 / deblock=1:-1:-1 / analyse=0x3:0x113 / me=umh / subme=9 / psy=1 / psy_rd=1.00:0.15 / mixed_ref=1 / me_range=24 / chroma_me=1 / trellis=2 / 8x8dct=1 / cqm=0 / deadzone=21,11 / fast_pskip=1 / chroma_qp_offset=-3 / threads=16 / lookahead_threads=4 / sliced_threads=0 / nr=0 / decimate=1 / interlaced=0 / bluray_compat=0 / constrained_intra=0 / bframes=3 / b_pyramid=2 / b_adapt=2 / b_bias=0 / direct=3 / weightb=1 / open_gop=0 / weightp=2 / keyint=250 / keyint_min=25 / scenecut=40 / intra_refresh=0 / rc_lookahead=50 / rc=2pass / mbtree=1 / bitrate=2500 / ratetol=1.0 / qcomp=0.60 / qpmin=0 / qpmax=69 / qpstep=4 / cplxblur=20.0 / qblur=0.5 / vbv_maxrate=31250 / vbv_bufsize=31250 / nal_hrd=none / filler=0 / ip_ratio=1.40 / aq=3:1.00
    Default                     : Yes
    Forced                      : No

    Audio #1
    ID                          : 2
    Format                      : AC-3
    Format/Info                 : Audio Coding 3
    Commercial name             : Dolby Digital
    Codec ID                    : A_AC3
    Duration                    : 1 h 35 min
    Bit rate mode               : Constant
    Bit rate                    : 384 kb/s
    Channel(s)                  : 2 channels
    Channel layout              : L R
    Sampling rate               : 48.0 kHz
    Frame rate                  : 31.250 FPS (1536 SPF)
    Compression mode            : Lossy
    Stream size                 : 261 MiB (12%)
    Title                       : Español latino [CinemaniaHDD]
    Language                    : Spanish
    Service kind                : Complete Main
    Default                     : Yes
    Forced                      : No

    Audio #2
    ID                          : 3
    Format                      : AC-3
    Format/Info                 : Audio Coding 3
    Commercial name             : Dolby Digital
    Codec ID                    : A_AC3
    Duration                    : 1 h 35 min
    Bit rate mode               : Constant
    Bit rate                    : 448 kb/s
    Channel(s)                  : 6 channels
    Channel layout              : L R C LFE Ls Rs
    Sampling rate               : 48.0 kHz
    Frame rate                  : 31.250 FPS (1536 SPF)
    Compression mode            : Lossy
    Stream size                 : 305 MiB (13%)
    Title                       : Inglés [CinemaniaHDD]
    Language                    : English
    Service kind                : Complete Main
    Default                     : No
    Forced                      : No

    Text #1
    ID                          : 4
    Format                      : UTF-8
    Codec ID                    : S_TEXT/UTF8
    Codec ID/Info               : UTF-8 Plain Text
    Duration                    : 1 h 6 min
    Bit rate                    : 0 b/s
    Count of elements           : 15
    Stream size                 : 331 Bytes (0%)
    Title                       : Forzados [CinemaniaHDD]
    Language                    : Spanish
    Default                     : Yes
    Forced                      : Yes

    Text #2
    ID                          : 5
    Format                      : UTF-8
    Codec ID                    : S_TEXT/UTF8
    Codec ID/Info               : UTF-8 Plain Text
    Duration                    : 1 h 30 min
    Bit rate                    : 40 b/s
    Count of elements           : 795
    Stream size                 : 26.8 KiB (0%)
    Title                       : Español latino [CinemaniaHDD]
    Language                    : Spanish
    Default                     : No
    Forced                      : No

    Text #3
    ID                          : 6
    Format                      : UTF-8
    Codec ID                    : S_TEXT/UTF8
    Codec ID/Info               : UTF-8 Plain Text
    Duration                    : 1 h 29 min
    Bit rate                    : 49 b/s
    Count of elements           : 901
    Stream size                 : 32.7 KiB (0%)
    Title                       : Inglés [CinemaniaHDD]
    Language                    : English
    Default                     : No
    Forced                      : No

    Menu
    00:00:00.000                : en:Chapter 1
    00:06:06.783                : en:Chapter 2
    00:13:02.073                : en:Chapter 3
    00:19:36.592                : en:Chapter 4
    00:25:37.745                : en:Chapter 5
    00:31:26.593                : en:Chapter 6
    00:37:11.938                : en:Chapter 7
    00:42:04.480                : en:Chapter 8
    00:47:22.715                : en:Chapter 9
    00:53:11.313                : en:Chapter 10
    01:01:50.916                : en:Chapter 11
    01:05:07.320                : en:Chapter 12
    01:08:12.672                : en:Chapter 13
    01:12:33.516                : en:Chapter 14
    01:19:43.320                : en:Chapter 15
    01:28:07.949                : en:Chapter 16

     

  • Peso: 2.21 GiB

Sinopsis

El francotirador de operaciones especiales Brandon Beckett es el principal sospechoso del asesinato de un dignatario extranjero en la víspera de la firma de un acuerdo comercial de alto perfil con los Estados Unidos. Beckett, que escapa por poco de la muerte, se da cuenta de que puede haber un agente oscuro trabajando dentro del gobierno, y se asocia con la única persona en la que puede confiar: su padre, el legendario sargento de francotiradores. Thomas Beckett. Ambos Becketts huyen de la CIA, mercenarios rusos y Lady Death, una asesina entrenada por Yakuza con habilidades de francotirador que rivaliza con ambos francotiradores legendarios.

Español Latino AC3 2.0 WEB-DL – Ingles AC3 5.1  BD

Ficha técnica

  • Titulo original: Sniper: Assassin's End
  • Fecha de lanzamiento: 15-06-2020 (United States of America)
  • Director: Kaare Andrews
  • Género: Acción, HD 1080p

Video trailer de la película

Enlaces de descarga

Rip de Bluray

Descargar Sniper: Assassin’s End (2020) HD 1080p Latino




Aportes de DPeliculasHDmega la pass es:dpeliculashdmega.org Aportes de CinemaniaHD la pass es:cinemaniahdd.com
Guardado en : Acción , HD 1080p

Películas relacionadas

  • Borrego: Sal Del Camino (2022) HD 1080p Latino

    Borrego: Sal Del Camino (2022) HD 1080p Latino

    2022
    Borrego: Sal Del Camino (2022) HD 1080p Latino

    1h 42m 2022

    Descargar Borrego: Sal Del Camino (2022) HD 1080p Latino. Una joven botánica se traslada a un pequeño...

    Director: Jesse Harris

    Género: Crimen

    Actores: Olivia Trujillo

  • Tren Bala (2022) WEB-DL 4K UHD HDR Latino

    Tren Bala (2022) WEB-DL 4K UHD HDR Latino

    2022
    Tren Bala (2022) WEB-DL 4K UHD HDR Latino

    2h 7m 2022

    Descargar Tren Bala (2022) WEB-DL 4K UHD HDR Latino. El desafortunado asesino "Catarina" está decidido...

    Director: Paul Barry

    Género: 4K HDR

    Actores: Zooey Miyoshi

  • Tren Bala (2022) AMZN WEB-DL 1080p Latino

    Tren Bala (2022) AMZN WEB-DL 1080p Latino

    2022
    Tren Bala (2022) AMZN WEB-DL 1080p Latino

    2h 7m 2022

    Descargar Tren Bala (2022) AMZN WEB-DL 1080p Latino. Cinco asesinos a sueldo se encuentran a bordo de...

    Director: Paul Barry

    Género: Acción

    Actores: Zooey Miyoshi

  • Athena (2022) NF WEB-DL 1080p Latino

    Athena (2022) NF WEB-DL 1080p Latino

    2022
    Athena (2022) NF WEB-DL 1080p Latino

    1h 37m 2022

    Descargar Athena (2022) NF WEB-DL 1080p Latino. Horas después de la trágica muerte de su hermano menor...

    Director: Romain Gavras

    Género: Acción

    Actores: Tarek Haddaji

descargar Sniper: Assassin’s End (2020) HD 1080p Latino 1080p 1080p gratis, Sniper: Assassin’s End (2020) HD 1080p Latino 1080p mega 1 link, Sniper: Assassin’s End (2020) HD 1080p Latino 1080p pelicula completa, descargar Sniper: Assassin’s End (2020) HD 1080p Latino 1080p gratis en mega.

Sniper: Assassin’s End (2020) HD 1080p Latino pelicula full hd, Sniper: Assassin’s End (2020) HD 1080p Latino mega latino, Sniper: Assassin’s End (2020) HD 1080p Latino 4k latino, Sniper: Assassin’s End (2020) HD 1080p Latino pelicula completa, Sniper: Assassin’s End (2020) HD 1080p Latino descargar gratis, descargar Sniper: Assassin’s End (2020) HD 1080p Latino pelicula latino, Sniper: Assassin’s End (2020) HD 1080p Latino 1 link mega, Sniper: Assassin’s End (2020) HD 1080p Latino 1 link google drive, Sniper: Assassin’s End (2020) HD 1080p Latino hd 1080p latino.
Comentarios 0