×

¿Problemas para descargar con Mozilla, EDGE? Deshabilita la opción "Abrir vinculos en una pestaña nueva" tal como lo muestra ésta imagen.

Snatchers (2019) WEB-DL 1080p Latino

1.045 vistas

Información de Snatchers (2019) WEB-DL 1080p Latino

Datos de la película

  • Calidad: WEBDL
  • Audio: Español Latino AC3 5.1 iTunes - Ingles AC3 5.1 iTunes
  • Subtitulos: Español Latino SRT- FORZADOS SRT
  • Resolución: 1920x804
  • Formato: MKV
  • Codec: H.264
  • Encoder: cinemaniahdd
  • Mediainfo: Clic para Mostrar Datos Ver
  • Snatchers (2019) WEB-DL 1080p Latino.mkv
    Format                      : Matroska
    Format version              : Version 4
    File size                   : 3.63 GiB
    Duration                    : 1 h 36 min
    Overall bit rate            : 5 369 kb/s
    Movie name                  : Snatchers (2019) - CinemaniaHDD.Net
    Encoded date                : UTC 2020-01-07 04:48:24
    Writing application         : mkvmerge v38.0.0 ('The Silent Type') 64-bit
    Writing library             : libebml v1.3.9 + libmatroska v1.5.2

    Video
    ID                          : 1
    Format                      : AVC
    Format/Info                 : Advanced Video Codec
    Format profile              : High@L4
    Format settings             : CABAC / 5 Ref Frames
    Format settings, CABAC      : Yes
    Format settings, ReFrames   : 5 frames
    Codec ID                    : V_MPEG4/ISO/AVC
    Duration                    : 1 h 36 min
    Bit rate                    : 4 535 kb/s
    Width                       : 1 920 pixels
    Height                      : 804 pixels
    Display aspect ratio        : 2.40:1
    Frame rate mode             : Constant
    Frame rate                  : 23.976 FPS
    Color space                 : YUV
    Chroma subsampling          : 4:2:0
    Bit depth                   : 8 bits
    Scan type                   : Progressive
    Bits/(Pixel*Frame)          : 0.123
    Stream size                 : 3.07 GiB (84%)
    Title                       : CinemaniaHDD
    Language                    : English
    Default                     : Yes
    Forced                      : No
    Color range                 : Limited
    Color primaries             : BT.709
    Transfer characteristics    : BT.709
    Matrix coefficients         : BT.709

    Audio #1
    ID                          : 2
    Format                      : AC-3
    Format/Info                 : Audio Coding 3
    Commercial name             : Dolby Digital
    Codec ID                    : A_AC3
    Duration                    : 1 h 36 min
    Bit rate mode               : Constant
    Bit rate                    : 448 kb/s
    Channel(s)                  : 6 channels
    Channel layout              : L R C LFE Ls Rs
    Sampling rate               : 48.0 kHz
    Frame rate                  : 31.250 FPS (1536 SPF)
    Bit depth                   : 16 bits
    Compression mode            : Lossy
    Delay relative to video     : -42 ms
    Stream size                 : 310 MiB (8%)
    Title                       : Español latino [CinemaniaHDD]
    Language                    : Spanish
    Service kind                : Complete Main
    Default                     : Yes
    Forced                      : No

    Audio #2
    ID                          : 3
    Format                      : AC-3
    Format/Info                 : Audio Coding 3
    Commercial name             : Dolby Digital
    Codec ID                    : A_AC3
    Duration                    : 1 h 36 min
    Bit rate mode               : Constant
    Bit rate                    : 384 kb/s
    Channel(s)                  : 6 channels
    Channel layout              : L R C LFE Ls Rs
    Sampling rate               : 48.0 kHz
    Frame rate                  : 31.250 FPS (1536 SPF)
    Bit depth                   : 16 bits
    Compression mode            : Lossy
    Delay relative to video     : -42 ms
    Stream size                 : 266 MiB (7%)
    Title                       : Inglés [CinemaniaHDD]
    Language                    : English
    Service kind                : Complete Main
    Default                     : No
    Forced                      : No

    Text #1
    ID                          : 4
    Format                      : UTF-8
    Codec ID                    : S_TEXT/UTF8
    Codec ID/Info               : UTF-8 Plain Text
    Duration                    : 1 h 24 min
    Bit rate                    : 0 b/s
    Count of elements           : 13
    Stream size                 : 392 Bytes (0%)
    Title                       : Forzados [CinemaniaHDD]
    Language                    : Spanish
    Default                     : Yes
    Forced                      : Yes

    Text #2
    ID                          : 5
    Format                      : UTF-8
    Codec ID                    : S_TEXT/UTF8
    Codec ID/Info               : UTF-8 Plain Text
    Duration                    : 1 h 35 min
    Bit rate                    : 45 b/s
    Count of elements           : 1097
    Stream size                 : 32.0 KiB (0%)
    Title                       : Español latino [CinemaniaHDD]
    Language                    : Spanish
    Default                     : No
    Forced                      : No

    Menu
    00:00:00.000                : en:1
    00:06:49.993                : en:2
    00:12:45.181                : en:3
    00:20:07.373                : en:4
    00:25:26.608                : en:5
    00:30:12.727                : en:6
    00:36:18.968                : en:7
    00:40:21.335                : en:8
    00:49:07.985                : en:9
    00:53:59.234                : en:10
    00:58:22.371                : en:11
    01:07:11.191                : en:12
    01:13:31.154                : en:13
    01:17:10.248                : en:14
    01:21:08.818                : en:15
    01:32:58.569                : en:16

     

  • Peso: 3.63 GiB

Sinopsis

Sara es una de las chicas geniales … pero está totalmente aterrorizada de perder su estatus. Estaría mucho más segura si pudiera recuperar a su ex super caliente, Skyler, pero a él no le interesa a menos que pasen al siguiente nivel … Decide dar el paso, pero algo sobre Skyler cambió en su viaje de verano a México … algo en sus narices. Sara se despierta a la mañana siguiente solo para descubrir que está embarazada de nueve meses. Desesperada por mantener esto en secreto, recurre a la única persona en la que puede confiar: su nerdy ex mejor amiga, Hayley. Pero después de que un viaje a la clínica resulta en que Sara da a luz algo de otro mundo, las chicas se dan cuenta de que su noche recién comienza …

Ficha técnica

Video trailer de la película

Enlaces de descarga

Rip de Bluray

Descargar Snatchers (2019) WEB-DL 1080p Latino




Aportes de DPeliculasHDmega la pass es:dpeliculashdmega.org Aportes de CinemaniaHD la pass es:cinemaniahdd.com
Guardado en : Ciencia ficción , Suspenso , Terror

Películas relacionadas

  • El Cuartel Secreto (2022) WEB-DL 4K UHD HDR Latino

    El Cuartel Secreto (2022) WEB-DL 4K UHD HDR Latino

    2022
    El Cuartel Secreto (2022) WEB-DL 4K UHD HDR Latino

    1h 44m 2022

    Descargar El Cuartel Secreto (2022) WEB-DL 4K UHD HDR Latino. Mientras pasan el rato después de la escuela,...

    Director: Henry Joost

    Género: 4K HDR

    Actores: Zeb Slone

  • El Cuartel Secreto (2022) WEB-DL 1080p Latino

    El Cuartel Secreto (2022) WEB-DL 1080p Latino

    2022
    El Cuartel Secreto (2022) WEB-DL 1080p Latino

    1h 44m 2022

    Descargar El Cuartel Secreto (2022) WEB-DL 1080p Latino. Mientras pasan el rato después de la escuela,...

    Director: Henry Joost

    Género: Acción

    Actores: Zeb Slone

  • Men in Black (1997) REMUX 4K HDR Latino – CMHDD

    Men in Black (1997) REMUX 4K HDR Latino – CMHDD

    1997
    Men in Black (1997) REMUX 4K HDR Latino – CMHDD

    1h 34m 1997

    Durante muchos años los extraterrestres han vivido en la Tierra, mezclados con los humanos, sin que...

    Director: Tyrone S. Walker

    Género: Acción

    Actores: Willie C. Carpenter

  • La Máquina infernal (2022) WEB-DL 1080p Latino

    La Máquina infernal (2022) WEB-DL 1080p Latino

    2022
    La Máquina infernal (2022) WEB-DL 1080p Latino

    1h 47m 2022

    Descargar La Máquina infernal (2022) WEB-DL 1080p Latino. Un fan obsesivo saca de su escondite al solitario...

    Director: Andrew Hunt

    Género: Suspenso

    Actores: Rocco Salata

  • Borrego: Sal Del Camino (2022) HD 1080p Latino

    Borrego: Sal Del Camino (2022) HD 1080p Latino

    2022
    Borrego: Sal Del Camino (2022) HD 1080p Latino

    1h 42m 2022

    Descargar Borrego: Sal Del Camino (2022) HD 1080p Latino. Una joven botánica se traslada a un pequeño...

    Director: Jesse Harris

    Género: Crimen

    Actores: Olivia Trujillo

descargar Snatchers (2019) WEB-DL 1080p Latino WEBDL 1080p gratis, Snatchers (2019) WEB-DL 1080p Latino WEBDL mega 1 link, Snatchers (2019) WEB-DL 1080p Latino WEBDL pelicula completa, descargar Snatchers (2019) WEB-DL 1080p Latino WEBDL gratis en mega.

Snatchers (2019) WEB-DL 1080p Latino pelicula full hd, Snatchers (2019) WEB-DL 1080p Latino mega latino, Snatchers (2019) WEB-DL 1080p Latino 4k latino, Snatchers (2019) WEB-DL 1080p Latino pelicula completa, Snatchers (2019) WEB-DL 1080p Latino descargar gratis, descargar Snatchers (2019) WEB-DL 1080p Latino pelicula latino, Snatchers (2019) WEB-DL 1080p Latino 1 link mega, Snatchers (2019) WEB-DL 1080p Latino 1 link google drive, Snatchers (2019) WEB-DL 1080p Latino hd 1080p latino.
Comentarios 2
  • Noel Eduardo Bolivar - 09 enero, 2020

    No me deja descomprimir con ninguna de las dos contraseñas

    • CinemaniaHDD - 09 enero, 2020

      cinemaniahdd.com