×

¿Problemas para descargar con Mozilla, EDGE? Deshabilita la opción "Abrir vinculos en una pestaña nueva" tal como lo muestra ésta imagen.

Snack Shack (2024) AMZN WEB-DL 1080p Latino

32 vistas

Información de Snack Shack (2024) AMZN WEB-DL 1080p Latino

Datos de la película

  • Calidad: WEBDL
  • Audio: Español Latino AC3 5.1 WEB-DL - Ingles AC3 5.1 WEB-DL
  • Subtitulos: Español Latino SRT- FORZADOS SRT
  • Resolución: 1920x800p
  • Formato: MKV
  • Codec: H.264
  • Encoder: Melkor
  • Mediainfo: Clic para Mostrar Datos Ver
  • Snack Shack (2024) AMZN WEB 1080p Latino.mkv
    Format                      : Matroska
    Format version              : Version 4
    File size                   : 8.35 GiB
    Duration                    : 1 h 52 min
    Overall bit rate            : 10.7 Mb/s
    Movie name                  : Snack Shack (2024) CinemaniaHDD.Net
    Encoded date                : UTC 2024-04-03 04:34:03
    Writing application         : mkvmerge v56.1.0 ('My Friend') 64-bit
    Writing library             : libebml v1.4.2 + libmatroska v1.6.4
    Attachments                 : CINEMANIAHD.png
    Site                        : CinemaniaHDD.Net
    Uploader                    : Melkor

    Video
    ID                          : 1
    Format                      : AVC
    Format/Info                 : Advanced Video Codec
    Format profile              : High@L4
    Format settings             : CABAC / 4 Ref Frames
    Format settings, CABAC      : Yes
    Format settings, Reference  : 4 frames
    Codec ID                    : V_MPEG4/ISO/AVC
    Duration                    : 1 h 52 min
    Bit rate mode               : Constant
    Bit rate                    : 10 000 kb/s
    Width                       : 1 920 pixels
    Height                      : 800 pixels
    Display aspect ratio        : 2.40:1
    Frame rate mode             : Constant
    Frame rate                  : 23.976 (24000/1001) FPS
    Color space                 : YUV
    Chroma subsampling          : 4:2:0
    Bit depth                   : 8 bits
    Scan type                   : Progressive
    Bits/(Pixel*Frame)          : 0.272
    Stream size                 : 7.55 GiB (90%)
    Title                       : Web HD1080p [CinemaniaHDD]
    Language                    : English
    Default                     : Yes
    Forced                      : Yes
    Color range                 : Limited
    Color primaries             : BT.709
    Transfer characteristics    : BT.709
    Matrix coefficients         : BT.709

    Audio #1
    ID                          : 2
    Format                      : AC-3
    Format/Info                 : Audio Coding 3
    Commercial name             : Dolby Digital
    Codec ID                    : A_AC3
    Duration                    : 1 h 51 min
    Bit rate mode               : Constant
    Bit rate                    : 384 kb/s
    Channel(s)                  : 6 channels
    Channel layout              : L R C LFE Ls Rs
    Sampling rate               : 48.0 kHz
    Frame rate                  : 31.250 FPS (1536 SPF)
    Compression mode            : Lossy
    Stream size                 : 307 MiB (4%)
    Title                       : Español Latino [CinemaniaHDD]
    Language                    : Spanish
    Service kind                : Complete Main
    Default                     : Yes
    Forced                      : Yes

    Audio #2
    ID                          : 3
    Format                      : E-AC-3
    Format/Info                 : Enhanced AC-3
    Commercial name             : Dolby Digital Plus
    Codec ID                    : A_EAC3
    Duration                    : 1 h 52 min
    Bit rate mode               : Constant
    Bit rate                    : 640 kb/s
    Channel(s)                  : 6 channels
    Channel layout              : L R C LFE Ls Rs
    Sampling rate               : 48.0 kHz
    Frame rate                  : 31.250 FPS (1536 SPF)
    Compression mode            : Lossy
    Stream size                 : 514 MiB (6%)
    Title                       : Ingles [CinemaniaHDD]
    Language                    : English
    Service kind                : Complete Main
    Default                     : No
    Forced                      : No

    Text #1
    ID                          : 4
    Format                      : UTF-8
    Codec ID                    : S_TEXT/UTF8
    Codec ID/Info               : UTF-8 Plain Text
    Duration                    : 1 h 51 min
    Bit rate                    : 0 b/s
    Count of elements           : 26
    Stream size                 : 698 Bytes (0%)
    Title                       : Forzados-SRT [CinemaniaHDD]
    Language                    : Spanish
    Default                     : Yes
    Forced                      : Yes

    Text #2
    ID                          : 5
    Format                      : UTF-8
    Codec ID                    : S_TEXT/UTF8
    Codec ID/Info               : UTF-8 Plain Text
    Duration                    : 1 h 51 min
    Bit rate                    : 49 b/s
    Count of elements           : 1481
    Stream size                 : 40.6 KiB (0%)
    Title                       : Español-SRT [CinemaniaHDD]
    Language                    : Spanish
    Default                     : No
    Forced                      : No

    Text #3
    ID                          : 6
    Format                      : UTF-8
    Codec ID                    : S_TEXT/UTF8
    Codec ID/Info               : UTF-8 Plain Text
    Duration                    : 1 h 48 min
    Bit rate                    : 63 b/s
    Count of elements           : 1664
    Stream size                 : 50.5 KiB (0%)
    Title                       : Ingles-SRT [CinemaniaHDD]
    Language                    : English
    Default                     : No
    Forced                      : No

    Menu
    00:00:00.000                : Scene 1
    01:47:03.541                : End Credits

  • Peso: 8.35 GiB

Sinopsis

Descargar Snack Shack (2024) AMZN WEB-DL 1080p Latino. Dos adolescentes viven el mejor verano de sus vidas mientras dirigen un snack bar en la piscina local.

Ficha técnica

Video trailer de la película

Enlaces de descarga

Rip de Bluray

Descargar Snack Shack (2024) AMZN WEB-DL 1080p Latino




Aportes de DPeliculasHDmega la pass es:dpeliculashdmega.org Aportes de CinemaniaHD la pass es:cinemaniahdd.com Aportes recientes:cinemaniahdd.net
Guardado en : Comedia

Películas relacionadas

descargar Snack Shack (2024) AMZN WEB-DL 1080p Latino WEBDL 1080p gratis, Snack Shack (2024) AMZN WEB-DL 1080p Latino WEBDL mega 1 link, Snack Shack (2024) AMZN WEB-DL 1080p Latino WEBDL pelicula completa, descargar Snack Shack (2024) AMZN WEB-DL 1080p Latino WEBDL gratis en mega.

Snack Shack (2024) AMZN WEB-DL 1080p Latino pelicula full hd, Snack Shack (2024) AMZN WEB-DL 1080p Latino mega latino, Snack Shack (2024) AMZN WEB-DL 1080p Latino 4k latino, Snack Shack (2024) AMZN WEB-DL 1080p Latino pelicula completa, Snack Shack (2024) AMZN WEB-DL 1080p Latino descargar gratis, descargar Snack Shack (2024) AMZN WEB-DL 1080p Latino pelicula latino, Snack Shack (2024) AMZN WEB-DL 1080p Latino 1 link mega, Snack Shack (2024) AMZN WEB-DL 1080p Latino 1 link google drive, Snack Shack (2024) AMZN WEB-DL 1080p Latino hd 1080p latino.
Comentarios 0