Smuggling in Suburbia (2019) WEB-DL 1080p Latino

10 vistas
1 estrella2 estrellas3 estrellas4 estrellas5 estrellas (Ninguna valoración todavía)
Cargando...

Información de Smuggling in Suburbia (2019) WEB-DL 1080p Latino

Datos de la película

  • Calidad: 1080p
  • Audio: Español Latino AC3 2.0 WEB-DL - Ingles AC3 5.1 WEB-DL
  • Subtitulos: Español Latino SRT - Ingles SRT
  • Resolución: 1920x1080
  • Formato: MKV
  • Codec: H.264
  • Encoder: cinemaniahdd
  • Mediainfo: Clic para Mostrar Datos Ver
  • Smuggling in Suburbia (2019) WEB-DL 1080p Latino [CNMNHDD].mkv
    Format                      : Matroska
    Format version              : Version 4
    File size                   : 5.60 GiB
    Duration                    : 1 h 28 min
    Overall bit rate mode       : Variable
    Overall bit rate            : 9 015 kb/s
    Movie name                  : Smuggling in Suburbia (2019) - CinemaniaHDD.Net
    Encoded date                : UTC 2021-10-13 01:46:30
    Writing application         : mkvmerge v56.1.0 ('My Friend') 64-bit
    Writing library             : libebml v1.4.2 + libmatroska v1.6.4

    Video
    ID                          : 1
    Format                      : AVC
    Format/Info                 : Advanced Video Codec
    Format profile              : High@L4
    Format settings             : CABAC / 4 Ref Frames
    Format settings, CABAC      : Yes
    Format settings, Reference  : 4 frames
    Codec ID                    : V_MPEG4/ISO/AVC
    Duration                    : 1 h 28 min
    Bit rate mode               : Variable
    Bit rate                    : 7 000 kb/s
    Width                       : 1 920 pixels
    Height                      : 1 080 pixels
    Display aspect ratio        : 16:9
    Frame rate mode             : Constant
    Frame rate                  : 23.976 (24000/1001) FPS
    Color space                 : YUV
    Chroma subsampling          : 4:2:0
    Bit depth                   : 8 bits
    Scan type                   : Progressive
    Bits/(Pixel*Frame)          : 0.166
    Stream size                 : 5.12 GiB (91%)
    Title                       : CinemaniaHDD
    Language                    : Spanish
    Default                     : Yes
    Forced                      : No
    Color range                 : Limited
    Color primaries             : BT.709
    Transfer characteristics    : BT.709
    Matrix coefficients         : BT.709

    Audio #1
    ID                          : 2
    Format                      : AC-3
    Format/Info                 : Audio Coding 3
    Commercial name             : Dolby Digital
    Codec ID                    : A_AC3
    Duration                    : 1 h 28 min
    Bit rate mode               : Constant
    Bit rate                    : 384 kb/s
    Channel(s)                  : 2 channels
    Channel layout              : L R
    Sampling rate               : 48.0 kHz
    Frame rate                  : 31.250 FPS (1536 SPF)
    Compression mode            : Lossy
    Stream size                 : 244 MiB (4%)
    Title                       : Español latino [CinemaniaHDD]
    Language                    : Spanish
    Service kind                : Complete Main
    Default                     : Yes
    Forced                      : No

    Audio #2
    ID                          : 3
    Format                      : AC-3
    Format/Info                 : Audio Coding 3
    Commercial name             : Dolby Digital
    Codec ID                    : A_AC3
    Duration                    : 1 h 28 min
    Bit rate mode               : Constant
    Bit rate                    : 384 kb/s
    Channel(s)                  : 6 channels
    Channel layout              : L R C LFE Ls Rs
    Sampling rate               : 48.0 kHz
    Frame rate                  : 31.250 FPS (1536 SPF)
    Compression mode            : Lossy
    Stream size                 : 244 MiB (4%)
    Title                       : Inglés [CinemaniaHDD]
    Language                    : English
    Service kind                : Complete Main
    Default                     : No
    Forced                      : No

    Text #1
    ID                          : 4
    Format                      : UTF-8
    Codec ID                    : S_TEXT/UTF8
    Codec ID/Info               : UTF-8 Plain Text
    Duration                    : 55 min 26 s
    Bit rate                    : 0 b/s
    Count of elements           : 14
    Stream size                 : 293 Bytes (0%)
    Title                       : Forzados [CinemaniaHDD]
    Language                    : Spanish
    Default                     : Yes
    Forced                      : Yes

    Text #2
    ID                          : 5
    Format                      : UTF-8
    Codec ID                    : S_TEXT/UTF8
    Codec ID/Info               : UTF-8 Plain Text
    Duration                    : 1 h 24 min
    Bit rate                    : 63 b/s
    Count of elements           : 1274
    Stream size                 : 39.5 KiB (0%)
    Title                       : Español latino [CinemaniaHDD]
    Language                    : Spanish
    Default                     : No
    Forced                      : No

     

  • Peso: 5.60 GiB

Sinopsis

Una ingenua adolescente acepta un trabajo para ayudar a su familia y se ve involucrada en una operación ilegal de contrabando de diamantes.

Ficha técnica

  • Titulo original: Smuggling in Suburbia
  • Fecha de lanzamiento: 04-10-2019
  • Director: Doug Campbell
  • Género: Suspenso
  • Puntuación: 0.0 0 votos
  • Duración:
    1h 29m

Video trailer de la película

Enlaces de descarga

Rip de Bluray

Descargar Smuggling in Suburbia (2019) WEB-DL 1080p Latino




Aportes de DPeliculasHDmega la pass es:dpeliculashdmega.org Aportes de CinemaniaHD la pass es:cinemaniahdd.com
Guardado en : Suspenso

Películas relacionadas

  • Playhouse (2020) PLACEBO Full HD 1080p Latino

    Playhouse (2020) PLACEBO Full HD 1080p Latino

    2020
    Playhouse (2020) PLACEBO Full HD 1080p Latino

    0.0 1h 27m 2020

    Descargar Playhouse (2020) PLACEBO Full HD 1080p Latino. El temerario Jack Travis (William Holstead)...

    Director: Toby Watts

    Género: FULL 1080p Plateadas

    Actores: William Holstead

  • Playhouse (2020) HD 1080p Latino

    Playhouse (2020) HD 1080p Latino

    2020
    Playhouse (2020) HD 1080p Latino

    0.0 1h 27m 2020

    Descargar Playhouse (2020) HD 1080p Latino. El temerario Jack Travis (William Holstead) es un irreverente...

    Director: Toby Watts

    Género: HD 1080p

    Actores: William Holstead

  • Playhouse (2020) REMUX 1080p Latino

    Playhouse (2020) REMUX 1080p Latino

    2020
    Playhouse (2020) REMUX 1080p Latino

    0.0 1h 27m 2020

    Descargar Playhouse (2020) REMUX 1080p Latino. El temerario Jack Travis (William Holstead) es un irreverente...

    Director: Toby Watts

    Género: Remux

    Actores: William Holstead

Smuggling in Suburbia (2019) WEB-DL 1080p Latino pelicula full hd, Smuggling in Suburbia (2019) WEB-DL 1080p Latino mega latino, Smuggling in Suburbia (2019) WEB-DL 1080p Latino 4k latino, Smuggling in Suburbia (2019) WEB-DL 1080p Latino pelicula completa, Smuggling in Suburbia (2019) WEB-DL 1080p Latino descargar gratis, descargar Smuggling in Suburbia (2019) WEB-DL 1080p Latino pelicula latino, Smuggling in Suburbia (2019) WEB-DL 1080p Latino 1 link mega, Smuggling in Suburbia (2019) WEB-DL 1080p Latino 1 link google drive, Smuggling in Suburbia (2019) WEB-DL 1080p Latino hd 1080p latino.
Comentarios 0