×

¿Problemas para descargar con Mozilla, EDGE? Deshabilita la opción "Abrir vinculos en una pestaña nueva" tal como lo muestra ésta imagen.

Smokin’ Aces (2006) REMUX 4K HDR Latino – CMHDD

308 vistas

Información de Smokin’ Aces (2006) REMUX 4K HDR Latino – CMHDD

Datos de la película

  • Calidad: 4K HDR
  • Audio: Español Latino DTS 5.1 BLURAY - Ingles DTS-HD Master 7.1 BLURAY
  • Subtitulos: Español Latino PGS
  • Resolución: 3840x2160p
  • Formato: MKV
  • Codec: H.264
  • Encoder: Dracarys
  • Mediainfo: Clic para Mostrar Datos Ver
  • Format                      : Matroska
    Format version              : Version 4
    File size                   : 42.6 GiB
    Duration                    : 1 h 48 min
    Overall bit rate mode       : Variable
    Overall bit rate            : 56.1 Mb/s
    Movie name                  : Smokin' Aces (2006) REMUX 4K HDR Latino - CMHDD
    Encoded date                : UTC 2022-05-23 01:52:14
    Writing application         : mkvmerge v17.0.0 ('Be Ur Friend') 64-bit
    Writing library             : libebml v1.3.5 + libmatroska v1.4.8

    Video
    ID                          : 1
    Format                      : HEVC
    Format/Info                 : High Efficiency Video Coding
    Format profile              : Main 10@L5.1@High
    HDR format                  : SMPTE ST 2086, HDR10 compatible
    Codec ID                    : V_MPEGH/ISO/HEVC
    Duration                    : 1 h 48 min
    Bit rate                    : 51.8 Mb/s
    Width                       : 3 840 pixels
    Height                      : 2 160 pixels
    Display aspect ratio        : 16:9
    Frame rate mode             : Constant
    Frame rate                  : 23.976 (24000/1001) FPS
    Color space                 : YUV
    Chroma subsampling          : 4:2:0 (Type 2)
    Bit depth                   : 10 bits
    Bits/(Pixel*Frame)          : 0.260
    Stream size                 : 39.3 GiB (92%)
    Writing library             : ATEME Titan File 3.9.6 (4.9.6.2)        
    Default                     : Yes
    Forced                      : No
    Color range                 : Limited
    Color primaries             : BT.2020
    Transfer characteristics    : PQ
    Matrix coefficients         : BT.2020 non-constant
    Mastering display color pri : Display P3
    Mastering display luminance : min: 0.0050 cd/m2, max: 1000 cd/m2
    Maximum Content Light Level : 984 cd/m2
    Maximum Frame-Average Light : 410 cd/m2

    Audio #1
    ID                          : 2
    Format                      : DTS XLL X
    Format/Info                 : Digital Theater Systems
    Commercial name             : DTS-HD Master Audio
    Codec ID                    : A_DTS
    Duration                    : 1 h 48 min
    Bit rate mode               : Variable
    Bit rate                    : 3 526 kb/s
    Channel(s)                  : 8 channels
    Channel(s)_Original         : Object Based
    ChannelLayout_Original      : Object Based
    Sampling rate               : 48.0 kHz
    Frame rate                  : 93.750 FPS (512 SPF)
    Bit depth                   : 24 bits
    Stream size                 : 2.68 GiB (6%)
    Language                    : English
    Default                     : No
    Forced                      : No

    Audio #2
    ID                          : 3
    Format                      : DTS
    Format/Info                 : Digital Theater Systems
    Codec ID                    : A_DTS
    Duration                    : 1 h 48 min
    Bit rate mode               : Constant
    Bit rate                    : 768 kb/s
    Channel(s)                  : 6 channels
    Channel layout              : C L R Ls Rs LFE
    Sampling rate               : 48.0 kHz
    Frame rate                  : 93.750 FPS (512 SPF)
    Bit depth                   : 24 bits
    Compression mode            : Lossy
    Stream size                 : 597 MiB (1%)
    Language                    : Spanish
    Default                     : Yes
    Forced                      : No

    Text
    ID                          : 4
    Format                      : PGS
    Muxing mode                 : zlib
    Codec ID                    : S_HDMV/PGS
    Codec ID/Info               : Picture based subtitle format used on BDs/HD-DVDs
    Duration                    : 1 h 38 min
    Bit rate                    : 40.9 kb/s
    Count of elements           : 3076
    Stream size                 : 28.9 MiB (0%)
    Language                    : Spanish
    Default                     : No
    Forced                      : No

    Menu
    00:00:00.000                : en:Chapter 1
    00:05:43.968                : en:Chapter 2
    00:11:15.466                : en:Chapter 3
    00:18:20.849                : en:Chapter 4
    00:25:50.215                : en:Chapter 5
    00:30:20.443                : en:Chapter 6
    00:35:39.804                : en:Chapter 7
    00:40:19.917                : en:Chapter 8
    00:48:23.275                : en:Chapter 9
    00:55:46.801                : en:Chapter 10
    00:59:59.512                : en:Chapter 11
    01:04:18.604                : en:Chapter 12
    01:10:16.545                : en:Chapter 13
    01:14:53.030                : en:Chapter 14
    01:22:17.432                : en:Chapter 15
    01:24:54.297                : en:Chapter 16
    01:28:16.291                : en:Chapter 17
    01:31:15.344                : en:Chapter 18
    01:39:26.251                : en:Chapter 19
    01:42:18.674                : en:Chapter 20

  • Peso: 42.6 GiB

Sinopsis

El jefe mafioso Primo Sparazza ofrece una generosa recompensa de 1 millón de dólares a quien liquide a Buddy ‘Aces’ Israel (Jeremy Piven), un mago de tres al cuarto que va a testificar contra la mafia de Las Vegas. El FBI ve la oportunidad de usar al embaucador para atrapar a Sparazza, y ofrece protección a Aces, al que custodiarán dos agentes (Ryan Reynolds & Ray Liotta) en su refugio de Lake Tahoe. Cuando la comunidad de malhechores presentes, pasados y futuros, se entera del precio de la cabeza de ‘Aces’, una multitud de cazadores de recompensas, matones, bellas y sensuales sirenas traidoras y mafiosos salen de caza. Con Lake Tahoe como objetivo, la colección de chorizos se lanza a una cómica carrera en su intento de matar a ‘Aces’ y llevarse el botín…

Ficha técnica

Video trailer de la película

Enlaces de descarga

Rip de Bluray

Descargar Smokin’ Aces (2006) REMUX 4K HDR Latino – CMHDD


Aportes de DPeliculasHDmega la pass es:dpeliculashdmega.org Aportes de CinemaniaHD la pass es:cinemaniahdd.com
Guardado en : Acción , Comedia , Crimen , Suspenso

Películas relacionadas

  • Juego de espías (2001) 1080p Latino

    Juego de espías (2001) 1080p Latino

    2001
    Juego de espías (2001) 1080p Latino

    2h 6m 2001

    Descargar Juego de espías (2001) 1080p Latino. Corre el año 1991, y al veterano agente de la CIA Nathan...

    Director: Tony Scott

    Género: Acción

    Actores: Zsolt Zágoni

  • Juego de espías (2001) Full HD 1080p Latino

    Juego de espías (2001) Full HD 1080p Latino

    2001
    Juego de espías (2001) Full HD 1080p Latino

    2h 6m 2001

    Descargar Juego de espías (2001) Full HD 1080p Latino. Corre el año 1991, y al veterano agente de la...

    Director: Tony Scott

    Género: Acción

    Actores: Zsolt Zágoni

  • Juego de espías (2001) REMUX 1080p Latino

    Juego de espías (2001) REMUX 1080p Latino

    2001
    Juego de espías (2001) REMUX 1080p Latino

    1h 55m 2001

    Descargar Juego de espías (2001) REMUX 1080p Latino. El día de su jubilación, el veterano agente de...

    Director: Tony Scott

    Género: Acción

    Actores: Zsolt Zágoni

descargar Smokin’ Aces (2006) REMUX 4K HDR Latino – CMHDD 4K HDR 1080p gratis, Smokin’ Aces (2006) REMUX 4K HDR Latino – CMHDD 4K HDR mega 1 link, Smokin’ Aces (2006) REMUX 4K HDR Latino – CMHDD 4K HDR pelicula completa, descargar Smokin’ Aces (2006) REMUX 4K HDR Latino – CMHDD 4K HDR gratis en mega.

Smokin’ Aces (2006) REMUX 4K HDR Latino – CMHDD pelicula full hd, Smokin’ Aces (2006) REMUX 4K HDR Latino – CMHDD mega latino, Smokin’ Aces (2006) REMUX 4K HDR Latino – CMHDD 4k latino, Smokin’ Aces (2006) REMUX 4K HDR Latino – CMHDD pelicula completa, Smokin’ Aces (2006) REMUX 4K HDR Latino – CMHDD descargar gratis, descargar Smokin’ Aces (2006) REMUX 4K HDR Latino – CMHDD pelicula latino, Smokin’ Aces (2006) REMUX 4K HDR Latino – CMHDD 1 link mega, Smokin’ Aces (2006) REMUX 4K HDR Latino – CMHDD 1 link google drive, Smokin’ Aces (2006) REMUX 4K HDR Latino – CMHDD hd 1080p latino.
Comentarios 0