×

¿Problemas para descargar con Mozilla, EDGE? Deshabilita la opción "Abrir vinculos en una pestaña nueva" tal como lo muestra ésta imagen.

Smokey and the Bandit (1977) REMUX 4K HDR Latino – CMHDD

219 vistas

Información de Smokey and the Bandit (1977) REMUX 4K HDR Latino – CMHDD

Datos de la película

  • Calidad: 4K HDR
  • Audio: Se especifica abajo de la Sinopsis
  • Subtitulos: Español Latino PGS
  • Resolución: 3840x2160p
  • Formato: MKV
  • Codec: H.264
  • Encoder: Dracarys
  • Mediainfo: Clic para Mostrar Datos Ver
  • Format                      : Matroska
    Format version              : Version 4
    File size                   : 52.3 GiB
    Duration                    : 1 h 35 min
    Overall bit rate mode       : Variable
    Overall bit rate            : 78.2 Mb/s
    Movie name                  : Smokey and the Bandit (1977) REMUX 4K HDR Latino - CMHDD
    Encoded date                : UTC 2021-05-15 20:29:16
    Writing application         : mkvmerge v56.1.0 ('My Friend') 64-bit
    Writing library             : libebml v1.4.2 + libmatroska v1.6.4
    Cover                       : Yes
    Attachments                 : cover.jpg

    Video
    ID                          : 1
    ID in the original source m : 4113 (0x1011)
    Format                      : HEVC
    Format/Info                 : High Efficiency Video Coding
    Format profile              : Main 10@L5.1@High
    HDR format                  : SMPTE ST 2086, HDR10 compatible
    Codec ID                    : V_MPEGH/ISO/HEVC
    Duration                    : 1 h 35 min
    Bit rate                    : 73.3 Mb/s
    Width                       : 3 840 pixels
    Height                      : 2 160 pixels
    Display aspect ratio        : 16:9
    Frame rate mode             : Constant
    Frame rate                  : 23.976 (24000/1001) FPS
    Color space                 : YUV
    Chroma subsampling          : 4:2:0 (Type 2)
    Bit depth                   : 10 bits
    Bits/(Pixel*Frame)          : 0.369
    Stream size                 : 49.1 GiB (94%)
    Default                     : Yes
    Forced                      : No
    Color range                 : Limited
    Color primaries             : BT.2020
    Transfer characteristics    : PQ
    Matrix coefficients         : BT.2020 non-constant
    Mastering display color pri : Display P3
    Mastering display luminance : min: 0.0050 cd/m2, max: 1000 cd/m2
    Maximum Content Light Level : 1000 cd/m2
    Maximum Frame-Average Light : 111 cd/m2
    Original source medium      : Blu-ray

    Audio #1
    ID                          : 2
    ID in the original source m : 4352 (0x1100)
    Format                      : MLP FBA 16-ch
    Format/Info                 : Meridian Lossless Packing FBA with 16-channel presentation
    Commercial name             : Dolby TrueHD with Dolby Atmos
    Codec ID                    : A_TRUEHD
    Duration                    : 1 h 35 min
    Bit rate mode               : Variable
    Bit rate                    : 3 527 kb/s
    Maximum bit rate            : 5 646 kb/s
    Channel(s)                  : 8 channels
    Channel layout              : L R C LFE Ls Rs Lb Rb
    Sampling rate               : 48.0 kHz
    Frame rate                  : 1 200.000 FPS (40 SPF)
    Compression mode            : Lossless
    Stream size                 : 2.36 GiB (5%)
    Language                    : English
    Default                     : No
    Forced                      : No
    Original source medium      : Blu-ray
    Number of dynamic objects   : 11
    Bed channel count           : 1 channel
    Bed channel configuration   : LFE

    Audio #2
    ID                          : 3
    ID in the original source m : 4352 (0x1100)
    Format                      : AC-3
    Format/Info                 : Audio Coding 3
    Commercial name             : Dolby Digital
    Codec ID                    : A_AC3
    Duration                    : 1 h 35 min
    Bit rate mode               : Constant
    Bit rate                    : 448 kb/s
    Channel(s)                  : 6 channels
    Channel layout              : L R C LFE Ls Rs
    Sampling rate               : 48.0 kHz
    Frame rate                  : 31.250 FPS (1536 SPF)
    Compression mode            : Lossy
    Stream size                 : 307 MiB (1%)
    Language                    : English
    Service kind                : Complete Main
    Default                     : No
    Forced                      : No
    Original source medium      : Blu-ray

    Audio #3
    ID                          : 4
    ID in the original source m : 4353 (0x1101)
    Format                      : DTS
    Format/Info                 : Digital Theater Systems
    Codec ID                    : A_DTS
    Duration                    : 1 h 35 min
    Bit rate mode               : Constant
    Bit rate                    : 768 kb/s
    Channel(s)                  : 2 channels
    Channel layout              : L R
    Sampling rate               : 48.0 kHz
    Frame rate                  : 93.750 FPS (512 SPF)
    Bit depth                   : 24 bits
    Compression mode            : Lossy
    Stream size                 : 526 MiB (1%)
    Language                    : Spanish
    Default                     : Yes
    Forced                      : No
    Original source medium      : Blu-ray

    Text #1
    ID                          : 5
    ID in the original source m : 4769 (0x12A1)
    Format                      : PGS
    Muxing mode                 : zlib
    Codec ID                    : S_HDMV/PGS
    Codec ID/Info               : Picture based subtitle format used on BDs/HD-DVDs
    Duration                    : 1 h 33 min
    Bit rate                    : 39.0 kb/s
    Count of elements           : 2320
    Stream size                 : 26.0 MiB (0%)
    Language                    : Spanish
    Default                     : No
    Forced                      : No
    Original source medium      : Blu-ray

    Text #2
    ID                          : 6
    ID in the original source m : 4771 (0x12A3)
    Format                      : PGS
    Muxing mode                 : zlib
    Codec ID                    : S_HDMV/PGS
    Codec ID/Info               : Picture based subtitle format used on BDs/HD-DVDs
    Duration                    : 1 h 28 min
    Bit rate                    : 370 b/s
    Count of elements           : 28
    Stream size                 : 240 KiB (0%)
    Language                    : Spanish
    Default                     : Yes
    Forced                      : No
    Original source medium      : Blu-ray

    Menu
    00:00:00.000                : Chapter 01
    00:04:57.005                : Chapter 02
    00:07:27.780                : Chapter 03
    00:18:01.997                : Chapter 04
    00:21:16.024                : Chapter 05
    00:23:55.892                : Chapter 06
    00:32:15.892                : Chapter 07
    00:41:09.133                : Chapter 08
    00:43:42.494                : Chapter 09
    00:53:49.017                : Chapter 10
    01:07:01.267                : Chapter 11
    01:12:06.572                : Chapter 12
    01:19:11.538                : Chapter 13
    01:24:39.866                : Chapter 14
    01:27:28.576                : Chapter 15
    01:32:17.406                : Chapter 16

  • Peso: 52.3 GiB

Sinopsis

Bandit (Reynolds), el camionero rey de la carretera, se enfrenta a todo un reto, recoger un camión de cerveza en Texarkana, el lugar más cercano donde se puede vender legalmente esa bebida, y conducirlo a través del país hasta Atlanta en sólo 48 horas. ¿La recompensa? ¡80.000 dólares! ¿El resultado? La persecución y los accidentes de coches más salvajes jamás vistos. ¿El motivo? Un sheriff de Texas, Buford T. Justice alias «Smokey», obsesionado con capturar al escurridizo Bandit, desde que la novia de su hijo lo abandonara por el rey de la carretera.

 

Latino: DTS 2.0  –  Ingles: TrueHD 7.1 + AC3 5.1

Ficha técnica

Video trailer de la película

Enlaces de descarga

Rip de Bluray

Descargar Smokey and the Bandit (1977) REMUX 4K HDR Latino – CMHDD


Aportes de DPeliculasHDmega la pass es:dpeliculashdmega.org Aportes de CinemaniaHD la pass es:cinemaniahdd.com
Guardado en : Acción , Aventura , Comedia

Películas relacionadas

  • M3GAN (2023) AMZN WEB-DL 4K UHD HDR Latino

    M3GAN (2023) AMZN WEB-DL 4K UHD HDR Latino

    2022
    M3GAN (2023) AMZN WEB-DL 4K UHD HDR Latino

    1h 42m 2022

    Descargar M3GAN (2023) AMZN WEB-DL 4K UHD HDR Latino. Cuando Gemma se convierte en la cuidadora de su...

    Director: Stephen W. Moore

    Género: 4K HDR

    Actores: Violet McGraw

  • M3GAN (2022) MA WEB-DL 1080p Latino

    M3GAN (2022) MA WEB-DL 1080p Latino

    2022
    M3GAN (2022) MA WEB-DL 1080p Latino

    1h 42m 2022

    Descargar M3GAN (2022) MA WEB-DL 1080p Latino. Cuando Gemma se convierte en la cuidadora de su sobrina...

    Director: Stephen W. Moore

    Género: Ciencia ficción

    Actores: Violet McGraw

  • Mar de sangre (2022) WEB-DL 1080p Latino

    Mar de sangre (2022) WEB-DL 1080p Latino

    2022
    Mar de sangre (2022) WEB-DL 1080p Latino

    1h 27m 2022

    Descargar Mar de sangre (2022) WEB-DL 1080p Latino. Un grupo de amigos que disfrutan de un fin de semana...

    Director: James Nunn

    Género: Acción

    Actores: Thomas Michael Flynn

  • Noche sin paz (2022) PLACEBO Full HD 1080p Latino

    Noche sin paz (2022) PLACEBO Full HD 1080p Latino

    2022
    Noche sin paz (2022) PLACEBO Full HD 1080p Latino

    1h 41m 2022

    Descargar Noche sin paz (2022) PLACEBO Full HD 1080p Latino. Cuando un equipo de mercenarios irrumpe...

    Director: Tyshana Hobson

    Género: Acción

    Actores: Yoon Cha-Lee

  • Noche sin paz (2022) HD 1080p Latino

    Noche sin paz (2022) HD 1080p Latino

    2022
    Noche sin paz (2022) HD 1080p Latino

    1h 41m 2022

    Descargar Noche sin paz (2022) HD 1080p Latino. Cuando un equipo de mercenarios irrumpe en Nochebuena...

    Director: Tyshana Hobson

    Género: Acción

    Actores: Yoon Cha-Lee

descargar Smokey and the Bandit (1977) REMUX 4K HDR Latino – CMHDD 4K HDR 1080p gratis, Smokey and the Bandit (1977) REMUX 4K HDR Latino – CMHDD 4K HDR mega 1 link, Smokey and the Bandit (1977) REMUX 4K HDR Latino – CMHDD 4K HDR pelicula completa, descargar Smokey and the Bandit (1977) REMUX 4K HDR Latino – CMHDD 4K HDR gratis en mega.

Smokey and the Bandit (1977) REMUX 4K HDR Latino – CMHDD pelicula full hd, Smokey and the Bandit (1977) REMUX 4K HDR Latino – CMHDD mega latino, Smokey and the Bandit (1977) REMUX 4K HDR Latino – CMHDD 4k latino, Smokey and the Bandit (1977) REMUX 4K HDR Latino – CMHDD pelicula completa, Smokey and the Bandit (1977) REMUX 4K HDR Latino – CMHDD descargar gratis, descargar Smokey and the Bandit (1977) REMUX 4K HDR Latino – CMHDD pelicula latino, Smokey and the Bandit (1977) REMUX 4K HDR Latino – CMHDD 1 link mega, Smokey and the Bandit (1977) REMUX 4K HDR Latino – CMHDD 1 link google drive, Smokey and the Bandit (1977) REMUX 4K HDR Latino – CMHDD hd 1080p latino.
Comentarios 0