×

¿Problemas para descargar con Mozilla, EDGE? Deshabilita la opción "Abrir vinculos en una pestaña nueva" tal como lo muestra ésta imagen.

Smallville (2001) Temporada 01 REMUX 1080p Latino

344 vistas

Información de Smallville (2001) Temporada 01 REMUX 1080p Latino

Datos de la película

  • Calidad: Full 1080p
  • Audio: Se especifica abajo de la Sinopsis
  • Subtitulos: Español Latino SRT- FORZADOS SRT
  • Resolución: 1920x1080p
  • Formato: MKV
  • Codec: H.264
  • Encoder: CinefiloCool
  • Mediainfo: Clic para Mostrar Datos Ver
  • Smallville S01E01 (2001) REMUX 1080p Latino-CMHDD.mkv
    Format                      : Matroska
    Format version              : Version 4
    File size                   : 7.42 GiB
    Duration                    : 45 min 29 s
    Overall bit rate mode       : Variable
    Overall bit rate            : 23.4 Mb/s
    Movie name                  : Smallville S01E01 Pilot CinemaniaHDD.Net
    Encoded date                : UTC 2021-11-06 21:39:48
    Writing application         : mkvmerge v56.1.0 ('My Friend') 64-bit
    Writing library             : libebml v1.4.2 + libmatroska v1.6.4
    Attachments                 : CINEMANIAHD.png

    Video
    ID                          : 1
    ID in the original source m : 4113 (0x1011)
    Format                      : AVC
    Format/Info                 : Advanced Video Codec
    Format profile              : High@L4.1
    Format settings             : CABAC / 4 Ref Frames
    Format settings, CABAC      : Yes
    Format settings, Reference  : 4 frames
    Codec ID                    : V_MPEG4/ISO/AVC
    Duration                    : 45 min 29 s
    Bit rate mode               : Variable
    Bit rate                    : 20.8 Mb/s
    Maximum bit rate            : 38.0 Mb/s
    Width                       : 1 920 pixels
    Height                      : 1 080 pixels
    Display aspect ratio        : 16:9
    Frame rate mode             : Constant
    Frame rate                  : 23.976 (24000/1001) FPS
    Color space                 : YUV
    Chroma subsampling          : 4:2:0
    Bit depth                   : 8 bits
    Scan type                   : Progressive
    Bits/(Pixel*Frame)          : 0.418
    Stream size                 : 6.60 GiB (89%)
    Title                       : REMUX HD1080p [CinemaniaHDD]
    Default                     : Yes
    Forced                      : Yes
    Original source medium      : Blu-ray

    Audio #1
    ID                          : 2
    Format                      : AC-3
    Format/Info                 : Audio Coding 3
    Commercial name             : Dolby Digital
    Codec ID                    : A_AC3
    Duration                    : 45 min 29 s
    Bit rate mode               : Constant
    Bit rate                    : 256 kb/s
    Channel(s)                  : 2 channels
    Channel layout              : L R
    Sampling rate               : 48.0 kHz
    Frame rate                  : 31.250 FPS (1536 SPF)
    Compression mode            : Lossy
    Stream size                 : 83.3 MiB (1%)
    Title                       : Español Latino [CinemaniaHDD]
    Language                    : Spanish
    Service kind                : Complete Main
    Default                     : Yes
    Forced                      : Yes

    Audio #2
    ID                          : 3
    ID in the original source m : 4352 (0x1100)
    Format                      : DTS XLL
    Format/Info                 : Digital Theater Systems
    Commercial name             : DTS-HD Master Audio
    Codec ID                    : A_DTS
    Duration                    : 45 min 29 s
    Bit rate mode               : Variable
    Bit rate                    : 2 321 kb/s
    Channel(s)                  : 6 channels
    Channel layout              : C L R Ls Rs LFE
    Sampling rate               : 48.0 kHz
    Frame rate                  : 93.750 FPS (512 SPF)
    Bit depth                   : 16 bits
    Compression mode            : Lossless
    Stream size                 : 755 MiB (10%)
    Title                       : Ingles [CinemaniaHDD]
    Language                    : English
    Default                     : No
    Forced                      : No
    Original source medium      : Blu-ray

    Text #1
    ID                          : 4
    Format                      : UTF-8
    Codec ID                    : S_TEXT/UTF8
    Codec ID/Info               : UTF-8 Plain Text
    Duration                    : 43 min 41 s
    Bit rate                    : 36 b/s
    Count of elements           : 594
    Stream size                 : 11.8 KiB (0%)
    Title                       : Español-SRT [CinemaniaHDD]
    Language                    : Spanish
    Default                     : No
    Forced                      : No

    Text #2
    ID                          : 5
    ID in the original source m : 4608 (0x1200)
    Format                      : PGS
    Muxing mode                 : zlib
    Codec ID                    : S_HDMV/PGS
    Codec ID/Info               : Picture based subtitle format used on BDs/HD-DVDs
    Duration                    : 44 min 29 s
    Bit rate                    : 23.7 kb/s
    Count of elements           : 854
    Stream size                 : 7.55 MiB (0%)
    Title                       : Ingles-PGS [CinemaniaHDD]
    Language                    : English
    Default                     : No
    Forced                      : No
    Original source medium      : Blu-ray

    Menu
    00:00:00.000                : Chapter 01
    00:08:36.724                : Chapter 02
    00:17:47.357                : Chapter 03
    00:26:04.062                : Chapter 04
    00:30:59.816                : Chapter 05
    00:37:01.928                : Chapter 06
    00:44:49.061                : Chapter 07

  • Peso: 6.29 - 8.07 GiB Aprox. C/U | 152 GiB Total.

Sinopsis

Descargar Smallville (2001) Temporada 01 REMUX 1080p Latino. La serie narra las aventuras del joven Clark Kent en el pueblo ficticio de Smallville, Kansas, durante los años previos a que él se convierta en Superman. Allí vivía con sus padres, estudiaba en el instituto local y conoció a su primera novia, Lana Lang, y a su futuro rival, Lex Luthor. Las primeras cuatro temporadas se centran en Clark y sus amigos durante el instituto. A partir de la Quinta Temporada la serie cambia de concepto, con situaciones más adultas, y la inclusión de elementos como la Fortaleza de la Soledad o la Zona Fantasma. Emitida por la cadena WB en los años 2001-2006 y por The CW desde 2006 hasta 2011.

Argumento Primera Temporada: Una Lluvia de Meteoritos trae un niño muy joven al pueblo de Smallville, Kansas, Estados Unidos por medio de una nave espacial. Por los catorce años de edad, ya muestra invulnerabilidad, super forteleza y super rapidez. La Temporada 1 relata los cuentos de su primer año de escuela secundaria. Casi cada semana batalla contra un nuevo villano con superpoderes dotados por exposición a los fragmentos de meteorito. Clark también negocia sus amistades con Lana, Lex, Pete y Chloe. Lex ha venido a Smallville para dirigir la fábrica de fertilizante. Siente curiosidad por Clark y la lluvia de meteoritos y sus investigaciones amenazan de exponer a Clark.

Audio:
Español Latino Editado AC3 2.0 HMAX – Ingles DTS-HD 5.1 Bluray
Audio Latino: CinefiloCool Thanks Melkor Por El Source!!! 😀
Disponible Solo para VIP!!

Ficha técnica

Video trailer de la película

Enlaces de descarga

Rip de Bluray

Descargar Smallville (2001) Temporada 01 REMUX 1080p Latino


Aportes de DPeliculasHDmega la pass es:dpeliculashdmega.org Aportes de CinemaniaHD la pass es:cinemaniahdd.com

Películas relacionadas

  • Noche sin paz (2022) REMUX 1080p Latino

    Noche sin paz (2022) REMUX 1080p Latino

    2022
    Noche sin paz (2022) REMUX 1080p Latino

    1h 41m 2022

    Descargar Noche sin paz (2022) REMUX 1080p Latino. Cuando un equipo de mercenarios irrumpe en Nochebuena...

    Director: Tyshana Hobson

    Género: Acción

    Actores: Yoon Cha-Lee

  • Narvik (2022) NF WEB-DL 1080p Latino

    Narvik (2022) NF WEB-DL 1080p Latino

    2022
    Narvik (2022) NF WEB-DL 1080p Latino

    1h 48m 2022

    Descargar Narvik (2022) NF WEB-DL 1080p Latino. Abril de 1940. Los ojos del mundo están puestos en Narvik,...

    Director: Suzanne Svae-Johansen

    Género: Acción

    Actores: Torfinn Nag

  • Groundhog Day (1993) REMUX 4K HDR Latino – CMHDD

    Groundhog Day (1993) REMUX 4K HDR Latino – CMHDD

    1993
    Groundhog Day (1993) REMUX 4K HDR Latino – CMHDD

    1h 41m 1993

    Phil, hombre del tiempo de una cadena de televisión, es enviado un año más a Punxstawnwey, a cubrir...

    Director: Sam Hoffman

    Género: Comedia

    Actores: Willie Garson

descargar Smallville (2001) Temporada 01 REMUX 1080p Latino Full 1080p 1080p gratis, Smallville (2001) Temporada 01 REMUX 1080p Latino Full 1080p mega 1 link, Smallville (2001) Temporada 01 REMUX 1080p Latino Full 1080p serie completa, descargar Smallville (2001) Temporada 01 REMUX 1080p Latino Full 1080p gratis en mega.

Smallville (2001) Temporada 01 REMUX 1080p Latino pelicula full hd, Smallville (2001) Temporada 01 REMUX 1080p Latino mega latino, Smallville (2001) Temporada 01 REMUX 1080p Latino 4k latino, Smallville (2001) Temporada 01 REMUX 1080p Latino pelicula completa, Smallville (2001) Temporada 01 REMUX 1080p Latino descargar gratis, descargar Smallville (2001) Temporada 01 REMUX 1080p Latino pelicula latino, Smallville (2001) Temporada 01 REMUX 1080p Latino 1 link mega, Smallville (2001) Temporada 01 REMUX 1080p Latino 1 link google drive, Smallville (2001) Temporada 01 REMUX 1080p Latino hd 1080p latino.
Comentarios 0