×

¿Problemas para descargar con Mozilla, EDGE? Deshabilita la opción "Abrir vinculos en una pestaña nueva" tal como lo muestra ésta imagen.

Sling Blade (1996) REMUX 1080p Latino – CMHDD

183 vistas

Información de Sling Blade (1996) REMUX 1080p Latino – CMHDD

Datos de la película

  • Calidad: Full 1080p
  • Audio: Español Latino AC3 2.0 BLURAY - Ingles DTS 5.1 BLURAY
  • Subtitulos: Español Latino PGS
  • Resolución: 1920x1080p
  • Formato: MKV
  • Codec: H.264
  • Encoder: DRacarys
  • Mediainfo: Clic para Mostrar Datos Ver
  • Format                      : Matroska
    Format version              : Version 4
    File size                   : 26.4 GiB
    Duration                    : 2 h 14 min
    Overall bit rate mode       : Variable
    Overall bit rate            : 28.1 Mb/s
    Movie name                  : Sling Blade (1996) REMUX 1080p Latino - CMHDD
    Encoded date                : UTC 2023-06-06 23:00:48
    Writing application         : mkvmerge v47.0.0 ('Black Flag') 64-bit
    Writing library             : libebml v1.3.10 + libmatroska v1.5.2
    Cover                       : Yes
    Attachments                 : cover.jpg

    Video
    ID                          : 1
    ID in the original source m : 4113 (0x1011)
    Format                      : AVC
    Format/Info                 : Advanced Video Codec
    Format profile              : High@L4.1
    Format settings             : CABAC / 2 Ref Frames
    Format settings, CABAC      : Yes
    Format settings, Reference  : 2 frames
    Codec ID                    : V_MPEG4/ISO/AVC
    Duration                    : 2 h 14 min
    Bit rate mode               : Variable
    Bit rate                    : 24.3 Mb/s
    Width                       : 1 920 pixels
    Height                      : 1 080 pixels
    Display aspect ratio        : 16:9
    Frame rate mode             : Constant
    Frame rate                  : 23.976 (24000/1001) FPS
    Color space                 : YUV
    Chroma subsampling          : 4:2:0
    Bit depth                   : 8 bits
    Scan type                   : Progressive
    Bits/(Pixel*Frame)          : 0.489
    Stream size                 : 22.9 GiB (86%)
    Default                     : Yes
    Forced                      : No
    Original source medium      : Blu-ray

    Audio #1
    ID                          : 2
    ID in the original source m : 4352 (0x1100)
    Format                      : DTS XLL
    Format/Info                 : Digital Theater Systems
    Commercial name             : DTS-HD Master Audio
    Codec ID                    : A_DTS
    Duration                    : 2 h 14 min
    Bit rate mode               : Variable
    Bit rate                    : 3 485 kb/s
    Channel(s)                  : 6 channels
    Channel layout              : C L R Ls Rs LFE
    Sampling rate               : 48.0 kHz
    Frame rate                  : 93.750 FPS (512 SPF)
    Bit depth                   : 24 bits
    Compression mode            : Lossless
    Stream size                 : 3.28 GiB (12%)
    Language                    : English
    Default                     : No
    Forced                      : No
    Original source medium      : Blu-ray

    Audio #2
    ID                          : 3
    ID in the original source m : 4353 (0x1101)
    Format                      : AC-3
    Format/Info                 : Audio Coding 3
    Commercial name             : Dolby Digital
    Format settings             : Dolby Surround
    Codec ID                    : A_AC3
    Duration                    : 2 h 14 min
    Bit rate mode               : Constant
    Bit rate                    : 320 kb/s
    Channel(s)                  : 2 channels
    Channel layout              : L R
    Sampling rate               : 48.0 kHz
    Frame rate                  : 31.250 FPS (1536 SPF)
    Compression mode            : Lossy
    Stream size                 : 308 MiB (1%)
    Language                    : Spanish
    Service kind                : Complete Main
    Default                     : Yes
    Forced                      : No
    Original source medium      : Blu-ray

    Text
    ID                          : 4
    ID in the original source m : 4610 (0x1202)
    Format                      : PGS
    Muxing mode                 : zlib
    Codec ID                    : S_HDMV/PGS
    Codec ID/Info               : Picture based subtitle format used on BDs/HD-DVDs
    Duration                    : 2 h 7 min
    Bit rate                    : 31.4 kb/s
    Frame rate                  : 0.398 FPS
    Count of elements           : 3055
    Stream size                 : 28.8 MiB (0%)
    Language                    : Spanish
    Default                     : No
    Forced                      : No
    Original source medium      : Blu-ray

    Menu
    00:00:00.000                : en:Capítulo 01
    00:07:50.678                : en:Capítulo 02
    00:17:35.512                : en:Capítulo 03
    00:21:16.233                : en:Capítulo 04
    00:24:55.327                : en:Capítulo 05
    00:29:24.053                : en:Capítulo 06
    00:35:15.363                : en:Capítulo 07
    00:39:54.308                : en:Capítulo 08
    00:44:26.538                : en:Capítulo 09
    00:52:27.727                : en:Capítulo 10
    00:59:04.249                : en:Capítulo 11
    01:04:23.985                : en:Capítulo 12
    01:12:31.972                : en:Capítulo 13
    01:16:52.566                : en:Capítulo 14
    01:22:23.897                : en:Capítulo 15
    01:26:25.513                : en:Capítulo 16
    01:31:05.960                : en:Capítulo 17
    01:34:54.438                : en:Capítulo 18
    01:37:36.600                : en:Capítulo 19
    01:43:43.091                : en:Capítulo 20
    01:51:29.808                : en:Capítulo 21
    01:57:15.653                : en:Capítulo 22
    02:01:28.698                : en:Capítulo 23
    02:06:43.554                : en:Capítulo 24
    02:10:13.430                : en:Capítulo 25

  • Peso: 26.4 GiB

Sinopsis

Después de muchos años de reclusión por homicidio, Karl Childers, un retrasado mental bonachón, sale de un centro psiquiátrico y se propone empezar una nueva vida.

Ficha técnica

Video trailer de la película

Enlaces de descarga

Rip de Bluray

Descargar Sling Blade (1996) REMUX 1080p Latino – CMHDD


Aportes de DPeliculasHDmega la pass es:dpeliculashdmega.org Aportes de CinemaniaHD la pass es:cinemaniahdd.com Aportes recientes:cinemaniahdd.net
Guardado en : Drama

Películas relacionadas

descargar Sling Blade (1996) REMUX 1080p Latino – CMHDD Full 1080p 1080p gratis, Sling Blade (1996) REMUX 1080p Latino – CMHDD Full 1080p mega 1 link, Sling Blade (1996) REMUX 1080p Latino – CMHDD Full 1080p pelicula completa, descargar Sling Blade (1996) REMUX 1080p Latino – CMHDD Full 1080p gratis en mega.

Sling Blade (1996) REMUX 1080p Latino – CMHDD pelicula full hd, Sling Blade (1996) REMUX 1080p Latino – CMHDD mega latino, Sling Blade (1996) REMUX 1080p Latino – CMHDD 4k latino, Sling Blade (1996) REMUX 1080p Latino – CMHDD pelicula completa, Sling Blade (1996) REMUX 1080p Latino – CMHDD descargar gratis, descargar Sling Blade (1996) REMUX 1080p Latino – CMHDD pelicula latino, Sling Blade (1996) REMUX 1080p Latino – CMHDD 1 link mega, Sling Blade (1996) REMUX 1080p Latino – CMHDD 1 link google drive, Sling Blade (1996) REMUX 1080p Latino – CMHDD hd 1080p latino.
Comentarios 0