Slender Man (2018) 1080p Latino

2.735 vistas
1 estrella2 estrellas3 estrellas4 estrellas5 estrellas (7 votos, promedio: 3,43 de 5)
Cargando…

Información de Slender Man (2018) 1080p Latino

Datos de la película

  • Calidad: 1080p
  • Audio: Español Latino AC3 5.1 BLURAY - Ingles AC3 5.1 BLURAY
  • Subtitulos: Español Latino SRT- FORZADOS SRT
  • Resolución: 1920x808p
  • Formato: MKV
  • Codec: H.264
  • Encoder: Dracarys
  • Mediainfo: Clic para Mostrar Datos Ver
  • Format                                   : Matroska
    Format version                           : Version 4 / Version 2
    File size                                : 3.09 GiB
    Duration                                 : 1 h 33 min
    Overall bit rate                         : 4 743 kb/s
    Movie name                               : CinemaniaHDD.net
    Encoded date                             : UTC 2018-10-16 20:48:24 / UTC 2018-10-16T06:06:50Z
    Writing application                      : mkvmerge v15.0.0 ('Duel with the Devil') 64-bit
    Writing library                          : libebml v1.3.5 + libmatroska v1.4.5 / Lavf57.7.2

    Video
    ID                                       : 1
    Format                                   : AVC
    Format/Info                              : Advanced Video Codec
    Format profile                           : [email protected]
    Format settings                          : CABAC / 5 Ref Frames
    Format settings, CABAC                   : Yes
    Format settings, RefFrames               : 5 frames
    Codec ID                                 : V_MPEG4/ISO/AVC
    Duration                                 : 1 h 33 min
    Bit rate                                 : 3 500 kb/s
    Width                                    : 1 920 pixels
    Height                                   : 808 pixels
    Display aspect ratio                     : 2.40:1
    Frame rate mode                          : Constant
    Frame rate                               : 23.976 (24000/1001) FPS
    Color space                              : YUV
    Chroma subsampling                       : 4:2:0
    Bit depth                                : 8 bits
    Scan type                                : Progressive
    Bits/(Pixel*Frame)                       : 0.094
    Stream size                              : 2.19 GiB (71%)
    Title                                    : Slender Man (2018) 1080p Latino
    Writing library                          : x264 core 148 r2708 86b7198
    Encoding settings                        : cabac=1 / ref=5 / deblock=1:0:0 / analyse=0x3:0x113 / me=umh / subme=8 / psy=1 / psy_rd=1.00:0.00 / mixed_ref=1 / me_range=16 / chroma_me=1 / trellis=1 / 8x8dct=1 / cqm=0 / deadzone=21,11 / fast_pskip=1 / chroma_qp_offset=-2 / threads=25 / lookahead_threads=4 / sliced_threads=0 / nr=0 / decimate=1 / interlaced=0 / bluray_compat=0 / constrained_intra=0 / bframes=3 / b_pyramid=2 / b_adapt=2 / b_bias=0 / direct=3 / weightb=1 / open_gop=0 / weightp=2 / keyint=240 / keyint_min=24 / scenecut=40 / intra_refresh=0 / rc_lookahead=50 / rc=abr / mbtree=1 / bitrate=3500 / ratetol=1.0 / qcomp=0.60 / qpmin=0 / qpmax=69 / qpstep=4 / vbv_maxrate=62500 / vbv_bufsize=78125 / nal_hrd=none / filler=0 / ip_ratio=1.40 / aq=1:1.00
    Language                                 : English
    Default                                  : Yes
    Forced                                   : No
    Color range                              : Limited
    Color primaries                          : BT.709
    Transfer characteristics                 : BT.709
    Matrix coefficients                      : BT.709
    Statistics Tags Issue                    : mkvmerge v15.0.0 ('Duel with the Devil') 64-bit 2018-10-16 20:48:24 / mkvmerge v15.0.0 ('Duel with the Devil') 64-bit 2018-10-16 20:48:24 / UTC 2018-10-16T06:06:50Z
    FromStats_BitRate                        : 3461050
    FromStats_Duration                       : 01:33:10.502000000
    FromStats_FrameCount                     : 134038
    FromStats_StreamSize                     : 2418626001

    Audio #1
    ID                                       : 2
    Format                                   : AC-3
    Format/Info                              : Audio Coding 3
    Format settings, Endianness              : Big
    Codec ID                                 : A_AC3
    Duration                                 : 1 h 33 min
    Bit rate mode                            : Constant
    Bit rate                                 : 640 kb/s
    Channel(s)                               : 6 channels
    Channel positions                        : Front: L C R, Side: L R, LFE
    Sampling rate                            : 48.0 kHz
    Frame rate                               : 31.250 FPS (1536 SPF)
    Bit depth                                : 16 bits
    Compression mode                         : Lossy
    Delay relative to video                  : -5 ms
    Stream size                              : 427 MiB (13%)
    Language                                 : Spanish
    Service kind                             : Complete Main
    Default                                  : Yes
    Forced                                   : No
    Statistics Tags Issue                    : mkvmerge v15.0.0 ('Duel with the Devil') 64-bit 2018-10-16 20:48:24 / mkvmerge v15.0.0 ('Duel with the Devil') 64-bit 2018-10-16 20:48:24 / UTC 2018-10-16T06:06:50Z
    FromStats_BitRate                        : 640000
    FromStats_Duration                       : 01:33:10.592000000
    FromStats_FrameCount                     : 174706
    FromStats_StreamSize                     : 447247360

    Audio #2
    ID                                       : 3
    Format                                   : AC-3
    Format/Info                              : Audio Coding 3
    Format settings, Endianness              : Big
    Codec ID                                 : A_AC3
    Duration                                 : 1 h 33 min
    Bit rate mode                            : Constant
    Bit rate                                 : 640 kb/s
    Channel(s)                               : 6 channels
    Channel positions                        : Front: L C R, Side: L R, LFE
    Sampling rate                            : 48.0 kHz
    Frame rate                               : 31.250 FPS (1536 SPF)
    Bit depth                                : 16 bits
    Compression mode                         : Lossy
    Delay relative to video                  : -5 ms
    Stream size                              : 427 MiB (13%)
    Language                                 : English
    Service kind                             : Complete Main
    Default                                  : No
    Forced                                   : No
    Statistics Tags Issue                    : mkvmerge v15.0.0 ('Duel with the Devil') 64-bit 2018-10-16 20:48:24 / mkvmerge v15.0.0 ('Duel with the Devil') 64-bit 2018-10-16 20:48:24 / UTC 2018-10-16T06:06:50Z
    FromStats_BitRate                        : 640000
    FromStats_Duration                       : 01:33:10.560000000
    FromStats_FrameCount                     : 174705
    FromStats_StreamSize                     : 447244800

    Text #1
    ID                                       : 4
    Format                                   : UTF-8
    Codec ID                                 : S_TEXT/UTF8
    Codec ID/Info                            : UTF-8 Plain Text
    Title                                    : Forzados
    Language                                 : Spanish
    Default                                  : Yes
    Forced                                   : Yes
    Statistics Tags Issue                    : mkvmerge v15.0.0 ('Duel with the Devil') 64-bit 2018-10-16 20:48:24 / mkvmerge v15.0.0 ('Duel with the Devil') 64-bit 2018-10-16 20:48:24 / UTC 2018-10-16T06:06:50Z
    FromStats_BitRate                        : 0
    FromStats_Duration                       : 01:26:09.707000000
    FromStats_FrameCount                     : 5
    FromStats_StreamSize                     : 119

    Text #2
    ID                                       : 5
    Format                                   : UTF-8
    Codec ID                                 : S_TEXT/UTF8
    Codec ID/Info                            : UTF-8 Plain Text
    Language                                 : Spanish
    Default                                  : No
    Forced                                   : No
    Statistics Tags Issue                    : mkvmerge v15.0.0 ('Duel with the Devil') 64-bit 2018-10-16 20:48:24 / mkvmerge v15.0.0 ('Duel with the Devil') 64-bit 2018-10-16 20:48:24 / UTC 2018-10-16T06:06:50Z
    FromStats_BitRate                        : 38
    FromStats_Duration                       : 01:27:56.158000000
    FromStats_FrameCount                     : 719
    FromStats_StreamSize                     : 25288

    Menu
    00:00:00.000                             : :00:00:00.000
    00:04:42.783                             : :00:04:42.782
    00:12:02.347                             : :00:12:02.263
    00:15:20.920                             : :00:15:20.920
    00:22:07.368                             : :00:22:07.368
    00:28:44.431                             : :00:28:44.431
    00:32:14.599                             : :00:32:14.599
    00:40:31.763                             : :00:40:31.763
    00:45:50.790                             : :00:45:50.790
    00:52:40.199                             : :00:52:40.199
    00:55:34.498                             : :00:55:34.498
    01:00:42.681                             : :01:00:42.681
    01:05:19.624                             : :01:05:19.624
    01:08:53.963                             : :01:08:53.963
    01:15:11.340                             : :01:15:11.340
    01:21:12.743                             : :01:21:12.743

     

  • Peso: 3.09 GiB

Sinopsis

“El hombre más pálido. El traje más oscuro. Más grande que el gigante más alto. Ten miedo de este hombre: Slender Man ya que puede hacer lo que nadie puede”. Estas son algunas de las características que usuarios del internet dieron al personaje ficticio de terror Slender Man (el hombre delgado). Ahora la criatura llega a la gran pantalla con este film de terror, que nace de una de las leyendas urbanas de la web más populares, en base de una recopilación de imágenes en el foro Something Awful y, hoy en día, pertenece a la cultura “creepypasta”.

Ficha técnica

  • Titulo original: Slender Man
  • Fecha de lanzamiento: 10-08-2018 (United States of America)
  • Director: Sylvain White
  • Género: HD 1080p, Terror
  • Puntuación: 3.4 7 votos
  • Duración:
    1h 33m

Video trailer de la película

Enlaces de descarga

Rip de Bluray

Descargar Slender Man (2018) 1080p Latino




Aportes de DPeliculasHDmega la pass es:dpeliculashdmega.org Aportes de CinemaniaHD la pass es:cinemaniahdd.com
Guardado en : HD 1080p , Terror

Películas relacionadas

  • Wolf Warrior 2 (2017) 1080p Latino

    2017
    Wolf Warrior 2 (2017) 1080p Latino

    0.0 2h 6m 2017

    Secuela de la película de acción exitosa "Wolf Warrior" (2015) La operación más peligrosa de las...

    Director: Wu Jing

    Género: Acción

    Actores: Yu Qian

  • Papillon (2017) 1080p Latino

    2017
    Papillon (2017) 1080p Latino

    0.0 1h 49m 2017

    Red Granite Pictures producte esta nueva versión del clásico homónimo de 1973 dirigido por Franklin...

    Director: Michael Noer

    Género: Drama

    Actores: Yorick van Wageningen

  • Overlord (2018) Full HD 1080p Latino

    2018
    Overlord (2018) Full HD 1080p Latino

    0.0 1h 50m 2018

    Segunda Guerra Mundial. En la víspera del Día D, dos paracaidistas estadounidenses tienen una misión...

    Director: Julius Avery

    Género: Acción

    Actores: Wyatt Russell

  • Megalodón (2018) 4K UHD HDR Latino

    2018
    Megalodón (2018) 4K UHD HDR Latino

    4.5 1h 53m 2018

    Descargar Megalodón (2018) 4K UHD HDR Latino, Mega, Google Drive. Un sumergible de aguas profundas que...

    Director: Monique Knight

    Género: 4K HDR

    Actores: Yoson An

Comentarios 0