×

¿Problemas para descargar con Mozilla, EDGE? Deshabilita la opción "Abrir vinculos en una pestaña nueva" tal como lo muestra ésta imagen.

La Leyenda Del Jinete Sin Cabeza (1999) REMUX 1080p Latino

388 vistas

Información de La Leyenda Del Jinete Sin Cabeza (1999) REMUX 1080p Latino

Datos de la película

  • Calidad: Full 1080p
  • Audio: Español Latino AC3 5.1 BLURAY - Ingles DTS 5.1 BLURAY
  • Subtitulos: Español Latino SRT- FORZADOS SRT
  • Resolución: 1920x1080p
  • Formato: MKV
  • Codec: H.264
  • Encoder: CinefiloCool
  • Mediainfo: Clic para Mostrar Datos Ver
  • La Leyenda Del Jinete Sin Cabeza (1999) REMUX 1080p Latino-CMHDD.mkv
    Format                      : Matroska
    Format version              : Version 4
    File size                   : 23.3 GiB
    Duration                    : 1 h 45 min
    Overall bit rate mode       : Variable
    Overall bit rate            : 31.7 Mb/s
    Movie name                  : Sleepy Hollow (1999) CinemaniaHDD.Net
    Encoded date                : UTC 2020-10-25 21:03:34
    Writing application         : mkvmerge v51.0.0 ('I Wish') 64-bit
    Writing library             : libebml v1.4.0 + libmatroska v1.6.2
    Attachments                 : CINEMANIAHD.png

    Video
    ID                          : 1
    Format                      : AVC
    Format/Info                 : Advanced Video Codec
    Format profile              : High@L4.1
    Format settings             : CABAC / 4 Ref Frames
    Format settings, CABAC      : Yes
    Format settings, Reference  : 4 frames
    Codec ID                    : V_MPEG4/ISO/AVC
    Duration                    : 1 h 45 min
    Bit rate mode               : Variable
    Bit rate                    : 29.0 Mb/s
    Maximum bit rate            : 40.0 Mb/s
    Width                       : 1 920 pixels
    Height                      : 1 080 pixels
    Display aspect ratio        : 16:9
    Frame rate mode             : Constant
    Frame rate                  : 23.976 (24000/1001) FPS
    Standard                    : NTSC
    Color space                 : YUV
    Chroma subsampling          : 4:2:0
    Bit depth                   : 8 bits
    Scan type                   : Progressive
    Bits/(Pixel*Frame)          : 0.583
    Stream size                 : 21.3 GiB (92%)
    Title                       : REMUX 1080p [CinemaniaHDD]
    Language                    : English
    Default                     : Yes
    Forced                      : No
    Color range                 : Limited
    Color primaries             : BT.709
    Transfer characteristics    : BT.709
    Matrix coefficients         : BT.709

    Audio #1
    ID                          : 2
    Format                      : AC-3
    Format/Info                 : Audio Coding 3
    Commercial name             : Dolby Digital
    Codec ID                    : A_AC3
    Duration                    : 1 h 45 min
    Bit rate mode               : Constant
    Bit rate                    : 640 kb/s
    Channel(s)                  : 6 channels
    Channel layout              : L R C LFE Ls Rs
    Sampling rate               : 48.0 kHz
    Frame rate                  : 31.250 FPS (1536 SPF)
    Compression mode            : Lossy
    Delay relative to video     : 24 ms
    Stream size                 : 482 MiB (2%)
    Title                       : Español Latino [CinemaniaHDD]
    Language                    : Spanish
    Service kind                : Complete Main
    Default                     : Yes
    Forced                      : No

    Audio #2
    ID                          : 3
    Format                      : DTS XBR
    Format/Info                 : Digital Theater Systems
    Commercial name             : DTS-HD High Resolution Audio
    Codec ID                    : A_DTS
    Duration                    : 1 h 45 min
    Bit rate mode               : Constant
    Bit rate                    : 2 046 kb/s
    Channel(s)                  : 6 channels
    Channel layout              : C L R Ls Rs LFE
    Sampling rate               : 48.0 kHz
    Frame rate                  : 93.750 FPS (512 SPF)
    Bit depth                   : 16 bits
    Compression mode            : Lossy
    Stream size                 : 1.50 GiB (6%)
    Title                       : Ingles [CinemaniaHDD]
    Language                    : English
    Default                     : No
    Forced                      : No

    Text #1
    ID                          : 4
    Format                      : UTF-8
    Codec ID                    : S_TEXT/UTF8
    Codec ID/Info               : UTF-8 Plain Text
    Duration                    : 1 h 21 min
    Bit rate                    : 0 b/s
    Count of elements           : 16
    Stream size                 : 447 Bytes (0%)
    Title                       : Forzados-SRT [CinemaniaHDD]
    Language                    : Spanish
    Default                     : Yes
    Forced                      : No

    Text #2
    ID                          : 5
    Format                      : UTF-8
    Codec ID                    : S_TEXT/UTF8
    Codec ID/Info               : UTF-8 Plain Text
    Duration                    : 1 h 38 min
    Bit rate                    : 37 b/s
    Count of elements           : 793
    Stream size                 : 27.1 KiB (0%)
    Title                       : Español-SRT [CinemaniaHDD]
    Language                    : Spanish
    Default                     : No
    Forced                      : No

    Text #3
    ID                          : 6
    Format                      : UTF-8
    Codec ID                    : S_TEXT/UTF8
    Codec ID/Info               : UTF-8 Plain Text
    Duration                    : 1 h 35 min
    Bit rate                    : 37 b/s
    Count of elements           : 744
    Stream size                 : 26.2 KiB (0%)
    Title                       : Ingles-SRT [CinemaniaHDD]
    Language                    : English
    Default                     : No
    Forced                      : No

    Menu
    00:00:00.000                : en:00:00:00.000
    00:07:12.056                : en:00:07:12.056
    00:11:16.592                : en:00:11:16.592
    00:19:09.189                : en:00:19:09.189
    00:25:23.396                : en:00:25:23.396
    00:32:38.790                : en:00:32:38.790
    00:39:13.893                : en:00:39:13.893
    00:46:42.174                : en:00:46:42.174
    00:52:17.467                : en:00:52:17.467
    01:03:15.416                : en:01:03:15.416
    01:13:20.270                : en:01:13:20.270
    01:19:03.321                : en:01:19:03.321
    01:23:33.466                : en:01:23:33.466
    01:28:13.705                : en:01:28:13.705
    01:39:37.846                : en:01:39:37.846

  • Peso: 23.3 GiB

Sinopsis

Descargar La Leyenda Del Jinete Sin Cabeza (1999) REMUX 1080p Latino. Durante la Guerra de Secesión Americana, el condestable Ichabod Crane (Johnny Depp) un policía de Nueva York que utiliza avanzados métodos de investigación es enviado al pueblo de Sleepy Hollow para descubrir qué hay de verdad en la leyenda de un jinete sin cabeza que aterroriza a los habitantes del lugar. Una vez allí adopta la identidad de un profesor de escuela y se enamora de Katrina, que mantiene relaciones con uno de los hombres más conocidos del pueblo. Realidad y ficción se darán la mano en el momento menos pensado.

Ficha técnica

Video trailer de la película

Enlaces de descarga

Rip de Bluray

Descargar La Leyenda Del Jinete Sin Cabeza (1999) REMUX 1080p Latino




Aportes de DPeliculasHDmega la pass es:dpeliculashdmega.org Aportes de CinemaniaHD la pass es:cinemaniahdd.com
Guardado en : Drama , Fantasía , Misterio , Remux , Suspenso , Terror

Películas relacionadas

descargar La Leyenda Del Jinete Sin Cabeza (1999) REMUX 1080p Latino Full 1080p 1080p gratis, La Leyenda Del Jinete Sin Cabeza (1999) REMUX 1080p Latino Full 1080p mega 1 link, La Leyenda Del Jinete Sin Cabeza (1999) REMUX 1080p Latino Full 1080p pelicula completa, descargar La Leyenda Del Jinete Sin Cabeza (1999) REMUX 1080p Latino Full 1080p gratis en mega.

La Leyenda Del Jinete Sin Cabeza (1999) REMUX 1080p Latino pelicula full hd, La Leyenda Del Jinete Sin Cabeza (1999) REMUX 1080p Latino mega latino, La Leyenda Del Jinete Sin Cabeza (1999) REMUX 1080p Latino 4k latino, La Leyenda Del Jinete Sin Cabeza (1999) REMUX 1080p Latino pelicula completa, La Leyenda Del Jinete Sin Cabeza (1999) REMUX 1080p Latino descargar gratis, descargar La Leyenda Del Jinete Sin Cabeza (1999) REMUX 1080p Latino pelicula latino, La Leyenda Del Jinete Sin Cabeza (1999) REMUX 1080p Latino 1 link mega, La Leyenda Del Jinete Sin Cabeza (1999) REMUX 1080p Latino 1 link google drive, La Leyenda Del Jinete Sin Cabeza (1999) REMUX 1080p Latino hd 1080p latino.
Comentarios 1
  • ocpgaiden - 05 noviembre, 2020

    Gracias y saludos