×

¿Problemas para descargar con Mozilla, EDGE? Deshabilita la opción "Abrir vinculos en una pestaña nueva" tal como lo muestra ésta imagen.

SkyMed (2022) Primera Temporada AMZN WEB-DL 1080p Latino

55 vistas

Información de SkyMed (2022) Primera Temporada AMZN WEB-DL 1080p Latino

Datos de la película

  • Calidad: 1080p
  • Audio: Español Latino AC3 2.0 WEB-DL - Ingles AC3 2.0 WEB-DL
  • Subtitulos: Español Latino SRT- FORZADOS SRT
  • Resolución: 1920x1080
  • Formato: MKV
  • Codec: H.264
  • Encoder: cinemaniahdd
  • Mediainfo: Clic para Mostrar Datos Ver
  • Skymed T01E01 AMZN WEB-DL 1080p Latino [CNMNHDD].mkv
    Format                      : Matroska
    Format version              : Version 4
    File size                   : 2.86 GiB
    Duration                    : 43 min 43 s
    Overall bit rate            : 9 377 kb/s
    Movie name                  : Skymed S01E01 - Pilotos, Enfermeras y Osos, Ay Dios [1080p] - CinemaniaHDD.Net
    Encoded date                : UTC 2024-02-08 00:24:19
    Writing application         : mkvmerge v56.1.0 ('My Friend') 64-bit
    Writing library             : libebml v1.4.2 + libmatroska v1.6.4

    Video
    ID                          : 1
    Format                      : AVC
    Format/Info                 : Advanced Video Codec
    Format profile              : High@L4
    Format settings             : CABAC / 4 Ref Frames
    Format settings, CABAC      : Yes
    Format settings, Reference  : 4 frames
    Codec ID                    : V_MPEG4/ISO/AVC
    Duration                    : 43 min 42 s
    Bit rate mode               : Constant
    Bit rate                    : 8 542 kb/s
    Nominal bit rate            : 10 000 kb/s
    Width                       : 1 920 pixels
    Height                      : 1 080 pixels
    Display aspect ratio        : 16:9
    Frame rate mode             : Constant
    Frame rate                  : 23.976 (24000/1001) FPS
    Color space                 : YUV
    Chroma subsampling          : 4:2:0
    Bit depth                   : 8 bits
    Scan type                   : Progressive
    Bits/(Pixel*Frame)          : 0.172
    Stream size                 : 2.61 GiB (91%)
    Title                       : CinemaniaHDD
    Default                     : Yes
    Forced                      : No
    Color range                 : Limited
    Color primaries             : BT.709
    Transfer characteristics    : BT.709
    Matrix coefficients         : BT.709

    Audio #1
    ID                          : 2
    Format                      : AC-3
    Format/Info                 : Audio Coding 3
    Commercial name             : Dolby Digital
    Codec ID                    : A_AC3
    Duration                    : 43 min 43 s
    Bit rate mode               : Constant
    Bit rate                    : 384 kb/s
    Channel(s)                  : 2 channels
    Channel layout              : L R
    Sampling rate               : 48.0 kHz
    Frame rate                  : 31.250 FPS (1536 SPF)
    Compression mode            : Lossy
    Stream size                 : 120 MiB (4%)
    Language                    : Spanish
    Service kind                : Complete Main
    Default                     : Yes
    Forced                      : No

    Audio #2
    ID                          : 3
    Format                      : E-AC-3
    Format/Info                 : Enhanced AC-3
    Commercial name             : Dolby Digital Plus
    Codec ID                    : A_EAC3
    Duration                    : 43 min 43 s
    Bit rate mode               : Constant
    Bit rate                    : 224 kb/s
    Channel(s)                  : 2 channels
    Channel layout              : L R
    Sampling rate               : 48.0 kHz
    Frame rate                  : 31.250 FPS (1536 SPF)
    Compression mode            : Lossy
    Stream size                 : 70.0 MiB (2%)
    Title                       : Español Latino / E-AC3 [CinemaniaHDD]
    Language                    : Spanish
    Service kind                : Complete Main
    Default                     : No
    Forced                      : No

    Audio #3
    ID                          : 4
    Format                      : E-AC-3
    Format/Info                 : Enhanced AC-3
    Commercial name             : Dolby Digital Plus
    Codec ID                    : A_EAC3
    Duration                    : 43 min 43 s
    Bit rate mode               : Constant
    Bit rate                    : 224 kb/s
    Channel(s)                  : 2 channels
    Channel layout              : L R
    Sampling rate               : 48.0 kHz
    Frame rate                  : 31.250 FPS (1536 SPF)
    Compression mode            : Lossy
    Stream size                 : 70.0 MiB (2%)
    Title                       : Inglés [CinemaniaHDD]
    Language                    : English
    Service kind                : Complete Main
    Default                     : No
    Forced                      : No

    Text #1
    ID                          : 5
    Format                      : UTF-8
    Codec ID                    : S_TEXT/UTF8
    Codec ID/Info               : UTF-8 Plain Text
    Duration                    : 38 min 40 s
    Bit rate                    : 2 b/s
    Count of elements           : 22
    Stream size                 : 595 Bytes (0%)
    Title                       : Forzados [CinemaniaHDD]
    Language                    : Spanish
    Default                     : Yes
    Forced                      : Yes

    Text #2
    ID                          : 6
    Format                      : UTF-8
    Codec ID                    : S_TEXT/UTF8
    Codec ID/Info               : UTF-8 Plain Text
    Duration                    : 42 min 37 s
    Bit rate                    : 73 b/s
    Count of elements           : 632
    Stream size                 : 23.1 KiB (0%)
    Title                       : Español Latino [CinemaniaHDD]
    Language                    : Spanish
    Default                     : No
    Forced                      : No

     

     

  • Peso: 2.86 GiB Aprox ---- 28 GiB in 9 Chapters.

Sinopsis

Skymed sigue los triunfos, angustias y tribulaciones de enfermeras emergentes y pilotos que vuelan en ambulancias aéreas en el remoto norte de Canadá. Entrelazando intensos desarrollos de personajes con rescates médicos de alto riesgo.

Ficha técnica

Video trailer de la película

Enlaces de descarga

Rip de Bluray

Descargar SkyMed (2022) Primera Temporada AMZN WEB-DL 1080p Latino




Aportes de DPeliculasHDmega la pass es:dpeliculashdmega.org Aportes de CinemaniaHD la pass es:cinemaniahdd.com Aportes recientes:cinemaniahdd.net
Guardado en : Drama , Series

Películas relacionadas

descargar SkyMed (2022) Primera Temporada AMZN WEB-DL 1080p Latino 1080p 1080p gratis, SkyMed (2022) Primera Temporada AMZN WEB-DL 1080p Latino 1080p mega 1 link, SkyMed (2022) Primera Temporada AMZN WEB-DL 1080p Latino 1080p serie completa, descargar SkyMed (2022) Primera Temporada AMZN WEB-DL 1080p Latino 1080p gratis en mega.

SkyMed (2022) Primera Temporada AMZN WEB-DL 1080p Latino pelicula full hd, SkyMed (2022) Primera Temporada AMZN WEB-DL 1080p Latino mega latino, SkyMed (2022) Primera Temporada AMZN WEB-DL 1080p Latino 4k latino, SkyMed (2022) Primera Temporada AMZN WEB-DL 1080p Latino pelicula completa, SkyMed (2022) Primera Temporada AMZN WEB-DL 1080p Latino descargar gratis, descargar SkyMed (2022) Primera Temporada AMZN WEB-DL 1080p Latino pelicula latino, SkyMed (2022) Primera Temporada AMZN WEB-DL 1080p Latino 1 link mega, SkyMed (2022) Primera Temporada AMZN WEB-DL 1080p Latino 1 link google drive, SkyMed (2022) Primera Temporada AMZN WEB-DL 1080p Latino hd 1080p latino.
Comentarios 0