James Bond: Skyfall (2012) REMUX 1080p Latino

15 vistas
1 estrella2 estrellas3 estrellas4 estrellas5 estrellas (Ninguna valoración todavía)
Cargando…

Información de James Bond: Skyfall (2012) REMUX 1080p Latino

Datos de la película

  • Calidad: Full 1080p
  • Audio: Español Latino AC3 5.1 BLURAY - Ingles DTS 5.1 BLURAY
  • Subtitulos: Español Latino PGS - Ingles PGS
  • Resolución: 1920x1080p
  • Formato: MKV
  • Codec: H.264
  • Encoder: CinefiloCool
  • Mediainfo: Clic para Mostrar Datos Ver
  • Skyfall (2012) REMUX 1080p Latino-CMHDD.mkv
    Format                      : Matroska
    Format version              : Version 4
    File size                   : 26.8 GiB
    Duration                    : 2 h 23 min
    Overall bit rate mode       : Variable
    Overall bit rate            : 26.8 Mb/s
    Movie name                  : Skyfall (2012) CinemaniaHDD.Net
    Encoded date                : UTC 2020-05-21 01:35:47
    Writing application         : mkvmerge v46.0.0 ('No Deeper Escape') 64-bit
    Writing library             : libebml v1.3.10 + libmatroska v1.5.2
    Attachments                 : CINEMANIAHD.png

    Video
    ID                          : 1
    Format                      : AVC
    Format/Info                 : Advanced Video Codec
    Format profile              : High@L4.1
    Format settings             : CABAC / 4 Ref Frames
    Format settings, CABAC      : Yes
    Format settings, Reference  : 4 frames
    Codec ID                    : V_MPEG4/ISO/AVC
    Duration                    : 2 h 23 min
    Bit rate mode               : Variable
    Bit rate                    : 22.5 Mb/s
    Maximum bit rate            : 33.2 Mb/s
    Width                       : 1 920 pixels
    Height                      : 1 080 pixels
    Display aspect ratio        : 16:9
    Frame rate mode             : Constant
    Frame rate                  : 23.976 (24000/1001) FPS
    Color space                 : YUV
    Chroma subsampling          : 4:2:0
    Bit depth                   : 8 bits
    Scan type                   : Progressive
    Bits/(Pixel*Frame)          : 0.453
    Stream size                 : 22.5 GiB (84%)
    Title                       : REMUX 1080p [CinemaniaHDD]
    Default                     : Yes
    Forced                      : No

    Audio #1
    ID                          : 2
    Format                      : AC-3
    Format/Info                 : Audio Coding 3
    Commercial name             : Dolby Digital
    Codec ID                    : A_AC3
    Duration                    : 2 h 23 min
    Bit rate mode               : Constant
    Bit rate                    : 448 kb/s
    Channel(s)                  : 6 channels
    Channel layout              : L R C LFE Ls Rs
    Sampling rate               : 48.0 kHz
    Frame rate                  : 31.250 FPS (1536 SPF)
    Compression mode            : Lossy
    Stream size                 : 459 MiB (2%)
    Title                       : Español Latino [CinemaniaHDD]
    Language                    : Spanish
    Service kind                : Complete Main
    Default                     : Yes
    Forced                      : No

    Audio #2
    ID                          : 3
    Format                      : DTS XLL
    Format/Info                 : Digital Theater Systems
    Commercial name             : DTS-HD Master Audio
    Codec ID                    : A_DTS
    Duration                    : 2 h 23 min
    Bit rate mode               : Variable
    Bit rate                    : 3 830 kb/s
    Channel(s)                  : 6 channels
    Channel layout              : C L R Ls Rs LFE
    Sampling rate               : 48.0 kHz
    Frame rate                  : 93.750 FPS (512 SPF)
    Bit depth                   : 24 bits
    Compression mode            : Lossless
    Stream size                 : 3.83 GiB (14%)
    Title                       : Ingles [CinemaniaHDD]
    Language                    : English
    Default                     : No
    Forced                      : No

    Text #1
    ID                          : 4
    Format                      : PGS
    Muxing mode                 : zlib
    Codec ID                    : S_HDMV/PGS
    Codec ID/Info               : Picture based subtitle format used on BDs/HD-DVDs
    Duration                    : 2 h 9 min
    Bit rate                    : 229 b/s
    Count of elements           : 18
    Stream size                 : 218 KiB (0%)
    Title                       : Forzados-PGS [CinemaniaHDD]
    Language                    : Spanish
    Default                     : Yes
    Forced                      : No

    Text #2
    ID                          : 5
    Format                      : PGS
    Muxing mode                 : zlib
    Codec ID                    : S_HDMV/PGS
    Codec ID/Info               : Picture based subtitle format used on BDs/HD-DVDs
    Duration                    : 2 h 21 min
    Bit rate                    : 19.4 kb/s
    Count of elements           : 2068
    Stream size                 : 19.6 MiB (0%)
    Title                       : Español-PGS [CinemaniaHDD]
    Language                    : Spanish
    Default                     : No
    Forced                      : No

    Text #3
    ID                          : 6
    Format                      : PGS
    Muxing mode                 : zlib
    Codec ID                    : S_HDMV/PGS
    Codec ID/Info               : Picture based subtitle format used on BDs/HD-DVDs
    Duration                    : 2 h 16 min
    Bit rate                    : 25.7 kb/s
    Count of elements           : 2696
    Stream size                 : 25.2 MiB (0%)
    Title                       : Ingles-PGS [CinemaniaHDD]
    Language                    : English
    Default                     : No
    Forced                      : No

    Text #4
    ID                          : 7
    Format                      : UTF-8
    Codec ID                    : S_TEXT/UTF8
    Codec ID/Info               : UTF-8 Plain Text
    Duration                    : 2 h 4 min
    Bit rate                    : 0 b/s
    Count of elements           : 16
    Stream size                 : 474 Bytes (0%)
    Title                       : Forzados-SRT [CinemaniaHDD]
    Language                    : Spanish
    Default                     : No
    Forced                      : No

    Text #5
    ID                          : 8
    Format                      : UTF-8
    Codec ID                    : S_TEXT/UTF8
    Codec ID/Info               : UTF-8 Plain Text
    Duration                    : 2 h 16 min
    Bit rate                    : 32 b/s
    Count of elements           : 1031
    Stream size                 : 32.2 KiB (0%)
    Title                       : Español-SRT [CinemaniaHDD]
    Language                    : Spanish
    Default                     : No
    Forced                      : No

    Menu
    00:00:00.000                : en:Chapter 1
    00:04:28.477                : en:Chapter 2
    00:07:32.452                : en:Chapter 3
    00:12:47.392                : en:Chapter 4
    00:16:47.465                : en:Chapter 5
    00:21:37.338                : en:Chapter 6
    00:25:00.290                : en:Chapter 7
    00:29:25.222                : en:Chapter 8
    00:35:06.146                : en:Chapter 9
    00:38:27.764                : en:Chapter 10
    00:41:24.440                : en:Chapter 11
    00:46:22.905                : en:Chapter 12
    00:50:48.629                : en:Chapter 13
    00:54:53.290                : en:Chapter 14
    00:59:38.742                : en:Chapter 15
    01:05:14.244                : en:Chapter 16
    01:10:16.671                : en:Chapter 17
    01:17:09.750                : en:Chapter 18
    01:20:55.059                : en:Chapter 19
    01:26:10.374                : en:Chapter 20
    01:31:49.754                : en:Chapter 21
    01:37:04.527                : en:Chapter 22
    01:40:49.085                : en:Chapter 23
    01:43:45.970                : en:Chapter 24
    01:45:54.723                : en:Chapter 25
    01:52:10.599                : en:Chapter 26
    01:54:45.796                : en:Chapter 27
    01:58:13.044                : en:Chapter 28
    02:02:49.112                : en:Chapter 29
    02:09:38.646                : en:Chapter 30
    02:14:49.623                : en:Chapter 31
    02:17:46.425                : en:Chapter 32

  • Peso: 26.8 GiB

Sinopsis

Descargar James Bond: Skyfall (2012) REMUX 1080p Latino. En Skyfall, la lealtad de James Bond hacia M será puesta a prueba cuando el pasado de M vuelve para atormentarla. Su vida se verá en peligro, de modo que el agente 007 deberá localizar y eliminar la amenaza, sin importar el precio personal que tendrá que pagar. Tras el fracaso de la última y fatídica misión de Bond y revelarse la identidad de varios agentes secretos en distintos puntos del planeta, la sede del MI6 es atacada, obligando a M a trasladar su agencia. Debido a estos sucesos, su autoridad y posición se verán amenazados por Mallory, el nuevo Presidente del Comité de Inteligencia y Seguridad. Ahora, el MI6 se enfrenta a amenazas tanto externas como internas por lo que M decide acudir al único aliado en quien puede confiar: Bond. El agente 007 desaparece en las sombras con una única aliada: la agente de campo Eve. Juntos le seguirán la pista al misterioso Silva.

Ficha técnica

Video trailer de la película

Enlaces de descarga

Rip de Bluray

Descargar James Bond: Skyfall (2012) REMUX 1080p Latino




Aportes de DPeliculasHDmega la pass es:dpeliculashdmega.org Aportes de CinemaniaHD la pass es:cinemaniahdd.com
Guardado en : Acción , Aventura , Remux , Suspenso

Películas relacionadas

  • Female Fight Club: El Duelo Final (2016) HD 1080p Latino

    Female Fight Club: El Duelo Final (2016) HD 1080p Latino

    2017
    Female Fight Club: El Duelo Final (2016) HD 1080p Latino

    0.0 1h 30m 2017

    Descargar Female Fight Club: El Duelo Final (2016) HD 1080p Latino. Una ex-luchadora regresa a la vida...

    Director: Nicholas Paul Ybarra

    Género: Acción

    Actores: Tamiko Brownlee

  • El Niño (2016) 1080p Latino

    El Niño (2016) 1080p Latino

    2016
    El Niño (2016) 1080p Latino

    0.0 1h 37m 2016

    Descargar El Niño (2016) 1080p Latino. Greta (Lauren Cohan) es una joven americana que acepta trabajar...

    Director: William Brent Bell

    Género: HD 1080p

    Actores: Stephanie Lemelin

  • El Niño (2016) Full HD 1080p Latino

    El Niño (2016) Full HD 1080p Latino

    2016
    El Niño (2016) Full HD 1080p Latino

    0.0 1h 37m 2016

    Descargar El Niño (2016) Full HD 1080p Latino. Greta (Lauren Cohan) es una joven americana que acepta...

    Director: William Brent Bell

    Género: FULL 1080p Plateadas

    Actores: Stephanie Lemelin

  • El Niño (2016) REMUX 1080p Latino

    El Niño (2016) REMUX 1080p Latino

    2016
    El Niño (2016) REMUX 1080p Latino

    0.0 1h 37m 2016

    Descargar El Niño (2016) REMUX 1080p Latino. Greta (Lauren Cohan) es una joven americana que acepta...

    Director: William Brent Bell

    Género: Misterio

    Actores: Stephanie Lemelin

Comentarios 0