James Bond: Skyfall (2012) Full HD 1080p Latino

1.904 vistas
1 estrella2 estrellas3 estrellas4 estrellas5 estrellas (5 votos, promedio: 2,60 de 5)
Cargando...

Información de James Bond: Skyfall (2012) Full HD 1080p Latino

Datos de la película

  • Calidad: Full 1080p
  • Audio: Español Latino AC3 5.1 BLURAY - Ingles DTS 5.1 BLURAY
  • Subtitulos: Español Latino PGS - Ingles PGS
  • Resolución: 1920x1080p
  • Formato: MKV
  • Codec: H.264
  • Encoder: Dracarys
  • Mediainfo: Clic para Mostrar Datos Ver
  • Skyfall (2012) Full HD 1080p Latino-CMHDD.mkv
    Format                      : Matroska
    Format version              : Version 4
    File size                   : 8.57 GiB
    Duration                    : 2 h 23 min
    Overall bit rate mode       : Variable
    Overall bit rate            : 8 567 kb/s
    Movie name                  : Skyfall (2012) CinemaniaHDD.Net
    Encoded date                : UTC 2020-05-21 03:18:48
    Writing application         : mkvmerge v46.0.0 ('No Deeper Escape') 64-bit
    Writing library             : libebml v1.3.10 + libmatroska v1.5.2
    Attachments                 : CINEMANIAHD.png

    Video
    ID                          : 1
    Format                      : AVC
    Format/Info                 : Advanced Video Codec
    Format profile              : High@L4.1
    Format settings             : CABAC / 4 Ref Frames
    Format settings, CABAC      : Yes
    Format settings, Reference  : 4 frames
    Codec ID                    : V_MPEG4/ISO/AVC
    Duration                    : 2 h 23 min
    Bit rate                    : 4 272 kb/s
    Width                       : 1 920 pixels
    Height                      : 1 080 pixels
    Display aspect ratio        : 16:9
    Frame rate mode             : Constant
    Frame rate                  : 23.976 (24000/1001) FPS
    Color space                 : YUV
    Chroma subsampling          : 4:2:0
    Bit depth                   : 8 bits
    Scan type                   : Progressive
    Bits/(Pixel*Frame)          : 0.086
    Stream size                 : 4.27 GiB (50%)
    Title                       : Full HD1080p [CinemaniaHDD]
    Writing library             : x264 core 148 r2708 86b7198
    Encoding settings           : cabac=1 / ref=4 / deblock=1:0:0 / analyse=0x3:0x133 / me=esa / subme=10 / psy=1 / psy_rd=1.00:0.00 / mixed_ref=1 / me_range=24 / chroma_me=1 / trellis=2 / 8x8dct=1 / cqm=0 / deadzone=21,11 / fast_pskip=1 / chroma_qp_offset=-2 / threads=34 / lookahead_threads=5 / sliced_threads=0 / nr=0 / decimate=1 / interlaced=0 / bluray_compat=0 / constrained_intra=0 / bframes=8 / b_pyramid=2 / b_adapt=2 / b_bias=0 / direct=3 / weightb=1 / open_gop=0 / weightp=2 / keyint=240 / keyint_min=24 / scenecut=40 / intra_refresh=0 / rc_lookahead=60 / rc=crf / mbtree=1 / crf=20.0 / qcomp=0.60 / qpmin=0 / qpmax=69 / qpstep=4 / vbv_maxrate=62500 / vbv_bufsize=78125 / crf_max=0.0 / nal_hrd=none / filler=0 / ip_ratio=1.40 / aq=1:1.00
    Language                    : English
    Default                     : Yes
    Forced                      : No
    Color range                 : Limited
    Color primaries             : BT.709
    Transfer characteristics    : BT.709
    Matrix coefficients         : BT.709

    Audio #1
    ID                          : 2
    Format                      : AC-3
    Format/Info                 : Audio Coding 3
    Commercial name             : Dolby Digital
    Codec ID                    : A_AC3
    Duration                    : 2 h 23 min
    Bit rate mode               : Constant
    Bit rate                    : 448 kb/s
    Channel(s)                  : 6 channels
    Channel layout              : L R C LFE Ls Rs
    Sampling rate               : 48.0 kHz
    Frame rate                  : 31.250 FPS (1536 SPF)
    Compression mode            : Lossy
    Stream size                 : 459 MiB (5%)
    Title                       : Español Latino [CinemaniaHDD]
    Language                    : Spanish
    Service kind                : Complete Main
    Default                     : Yes
    Forced                      : No

    Audio #2
    ID                          : 3
    Format                      : DTS XLL
    Format/Info                 : Digital Theater Systems
    Commercial name             : DTS-HD Master Audio
    Codec ID                    : A_DTS
    Duration                    : 2 h 23 min
    Bit rate mode               : Variable
    Bit rate                    : 3 830 kb/s
    Channel(s)                  : 6 channels
    Channel layout              : C L R Ls Rs LFE
    Sampling rate               : 48.0 kHz
    Frame rate                  : 93.750 FPS (512 SPF)
    Bit depth                   : 24 bits
    Compression mode            : Lossless
    Stream size                 : 3.83 GiB (45%)
    Title                       : Ingles [CinemaniaHDD]
    Language                    : English
    Default                     : No
    Forced                      : No

    Text #1
    ID                          : 4
    Format                      : PGS
    Muxing mode                 : zlib
    Codec ID                    : S_HDMV/PGS
    Codec ID/Info               : Picture based subtitle format used on BDs/HD-DVDs
    Duration                    : 2 h 9 min
    Bit rate                    : 229 b/s
    Count of elements           : 18
    Stream size                 : 218 KiB (0%)
    Title                       : Forzados-PGS [CinemaniaHDD]
    Language                    : Spanish
    Default                     : Yes
    Forced                      : No

    Text #2
    ID                          : 5
    Format                      : PGS
    Muxing mode                 : zlib
    Codec ID                    : S_HDMV/PGS
    Codec ID/Info               : Picture based subtitle format used on BDs/HD-DVDs
    Duration                    : 2 h 21 min
    Bit rate                    : 19.4 kb/s
    Count of elements           : 2067
    Stream size                 : 19.6 MiB (0%)
    Title                       : Español-PGS [CinemaniaHDD]
    Language                    : Spanish
    Default                     : No
    Forced                      : No

    Text #3
    ID                          : 6
    Format                      : PGS
    Muxing mode                 : zlib
    Codec ID                    : S_HDMV/PGS
    Codec ID/Info               : Picture based subtitle format used on BDs/HD-DVDs
    Duration                    : 2 h 16 min
    Bit rate                    : 25.7 kb/s
    Count of elements           : 2696
    Stream size                 : 25.2 MiB (0%)
    Title                       : Ingles-PGS [CinemaniaHDD]
    Language                    : English
    Default                     : No
    Forced                      : No

    Text #4
    ID                          : 7
    Format                      : UTF-8
    Codec ID                    : S_TEXT/UTF8
    Codec ID/Info               : UTF-8 Plain Text
    Duration                    : 2 h 4 min
    Bit rate                    : 0 b/s
    Count of elements           : 16
    Stream size                 : 474 Bytes (0%)
    Title                       : Forzados-SRT [CinemaniaHDD]
    Language                    : Spanish
    Default                     : No
    Forced                      : No

    Text #5
    ID                          : 8
    Format                      : UTF-8
    Codec ID                    : S_TEXT/UTF8
    Codec ID/Info               : UTF-8 Plain Text
    Duration                    : 2 h 16 min
    Bit rate                    : 32 b/s
    Count of elements           : 1031
    Stream size                 : 32.2 KiB (0%)
    Title                       : Español-SRT [CinemaniaHDD]
    Language                    : Spanish
    Default                     : No
    Forced                      : No

    Menu
    00:00:00.000                : :Chapter 1
    00:04:28.477                : :Chapter 2
    00:07:32.452                : :Chapter 3
    00:12:47.392                : :Chapter 4
    00:16:47.465                : :Chapter 5
    00:21:37.338                : :Chapter 6
    00:25:00.290                : :Chapter 7
    00:29:25.222                : :Chapter 8
    00:35:06.146                : :Chapter 9
    00:38:27.764                : :Chapter 10
    00:41:24.440                : :Chapter 11
    00:46:22.905                : :Chapter 12
    00:50:48.629                : :Chapter 13
    00:54:53.290                : :Chapter 14
    00:59:38.742                : :Chapter 15
    01:05:14.244                : :Chapter 16
    01:10:16.671                : :Chapter 17
    01:17:09.750                : :Chapter 18
    01:20:55.059                : :Chapter 19
    01:26:10.374                : :Chapter 20
    01:31:49.754                : :Chapter 21
    01:37:04.527                : :Chapter 22
    01:40:49.085                : :Chapter 23
    01:43:45.970                : :Chapter 24
    01:45:54.723                : :Chapter 25
    01:52:10.599                : :Chapter 26
    01:54:45.796                : :Chapter 27
    01:58:13.044                : :Chapter 28
    02:02:49.112                : :Chapter 29
    02:09:38.646                : :Chapter 30
    02:14:49.623                : :Chapter 31
    02:17:46.425                : :Chapter 32

  • Peso: 8.57 GiB

Sinopsis

Descargar James Bond: Skyfall (2012) Full HD 1080p Latino. En Skyfall, la lealtad de James Bond hacia M será puesta a prueba cuando el pasado de M vuelve para atormentarla. Su vida se verá en peligro, de modo que el agente 007 deberá localizar y eliminar la amenaza, sin importar el precio personal que tendrá que pagar. Tras el fracaso de la última y fatídica misión de Bond y revelarse la identidad de varios agentes secretos en distintos puntos del planeta, la sede del MI6 es atacada, obligando a M a trasladar su agencia. Debido a estos sucesos, su autoridad y posición se verán amenazados por Mallory, el nuevo Presidente del Comité de Inteligencia y Seguridad. Ahora, el MI6 se enfrenta a amenazas tanto externas como internas por lo que M decide acudir al único aliado en quien puede confiar: Bond. El agente 007 desaparece en las sombras con una única aliada: la agente de campo Eve. Juntos le seguirán la pista al misterioso Silva.

RESUBIDO!

Ficha técnica

Video trailer de la película

Enlaces de descarga

Rip de Bluray

Descargar James Bond: Skyfall (2012) Full HD 1080p Latino




Aportes de DPeliculasHDmega la pass es:dpeliculashdmega.org Aportes de CinemaniaHD la pass es:cinemaniahdd.com

Películas relacionadas

Comentarios 2
  • ocpgaiden - 15 junio, 2020

    Gracias cinemaniahdd, saludos

  • ocpgaiden - 01 septiembre, 2018

    Gracias por 007 Skyfall, saludos