×

¿Problemas para descargar con Mozilla, EDGE? Deshabilita la opción "Abrir vinculos en una pestaña nueva" tal como lo muestra ésta imagen.

Skandal!: La Caída de Wirecard (2022) NF WEB-DL 1080p Latino

13 vistas

Información de Skandal!: La Caída de Wirecard (2022) NF WEB-DL 1080p Latino

Datos de la película

  • Calidad: WEBDL
  • Audio: Español Latino E-AC3 5.1 Netflix - Ingles E-AC3 5.1 Netflix
  • Subtitulos: Español Latino SRT- FORZADOS SRT
  • Resolución: 1920x1080p
  • Formato: MKV
  • Codec: H.264
  • Encoder: Melkor
  • Mediainfo: Clic para Mostrar Datos Ver
  • Skandal La Caida De  Wirecard (2022) NF WebDL 1080p Latino.mkv
    Format                      : Matroska
    Format version              : Version 4
    File size                   : 2.25 GiB
    Duration                    : 1 h 33 min
    Overall bit rate mode       : Variable
    Overall bit rate            : 3 464 kb/s
    Movie name                  : skandal bringing down wirecard (2022) CinemaniaHDD.Net
    Encoded date                : UTC 2022-09-18 03:49:09
    Writing application         : mkvmerge v56.1.0 ('My Friend') 64-bit
    Writing library             : libebml v1.4.2 + libmatroska v1.6.4
    Attachments                 : CINEMANIAHD.png

    Video
    ID                          : 1
    Format                      : AVC
    Format/Info                 : Advanced Video Codec
    Format profile              : High@L4
    Format settings             : CABAC / 4 Ref Frames
    Format settings, CABAC      : Yes
    Format settings, Reference  : 4 frames
    Codec ID                    : V_MPEG4/ISO/AVC
    Duration                    : 1 h 32 min
    Bit rate mode               : Variable
    Bit rate                    : 1 734 kb/s
    Maximum bit rate            : 20.0 Mb/s
    Width                       : 1 920 pixels
    Height                      : 1 080 pixels
    Display aspect ratio        : 16:9
    Frame rate mode             : Constant
    Frame rate                  : 25.000 FPS
    Color space                 : YUV
    Chroma subsampling          : 4:2:0
    Bit depth                   : 8 bits
    Scan type                   : Progressive
    Bits/(Pixel*Frame)          : 0.033
    Stream size                 : 1.13 GiB (50%)
    Title                       : Web HD1080p [CinemaniaHDD]
    Writing library             : x264 core 148 r2727 7d026e8
    Encoding settings           : cabac=1 / ref=4 / deblock=1:0:0 / analyse=0x3:0x111 / me=umh / subme=10 / psy=1 / psy_rd=1.00:0.00 / mixed_ref=1 / me_range=120 / chroma_me=1 / trellis=2 / 8x8dct=1 / cqm=0 / deadzone=21,11 / fast_pskip=1 / chroma_qp_offset=-2 / threads=8 / lookahead_threads=2 / sliced_threads=0 / nr=0 / decimate=1 / interlaced=0 / bluray_compat=0 / stitchable=1 / constrained_intra=0 / bframes=16 / b_pyramid=2 / b_adapt=2 / b_bias=0 / direct=3 / weightb=1 / open_gop=0 / weightp=2 / keyint=250 / keyint_min=126 / scenecut=0 / intra_refresh=0 / rc_lookahead=250 / rc=crf / mbtree=1 / crf=16.0 / qcomp=0.50 / qpmin=6 / qpmax=51 / qpstep=4 / vbv_maxrate=20000 / vbv_bufsize=25000 / crf_max=0.0 / nal_hrd=vbr / filler=0 / ip_ratio=1.40 / aq=1:0.80
    Default                     : Yes
    Forced                      : Yes

    Audio #1
    ID                          : 2
    Format                      : AC-3
    Format/Info                 : Audio Coding 3
    Commercial name             : Dolby Digital
    Codec ID                    : A_AC3
    Duration                    : 1 h 33 min
    Bit rate mode               : Constant
    Bit rate                    : 448 kb/s
    Channel(s)                  : 6 channels
    Channel layout              : L R C LFE Ls Rs
    Sampling rate               : 48.0 kHz
    Frame rate                  : 31.250 FPS (1536 SPF)
    Compression mode            : Lossy
    Stream size                 : 298 MiB (13%)
    Title                       : Español Latino AC3 [CinemaniaHDD]
    Language                    : Spanish
    Service kind                : Complete Main
    Default                     : Yes
    Forced                      : Yes

    Audio #2
    ID                          : 3
    Format                      : E-AC-3
    Format/Info                 : Enhanced AC-3
    Commercial name             : Dolby Digital Plus
    Codec ID                    : A_EAC3
    Duration                    : 1 h 33 min
    Bit rate mode               : Constant
    Bit rate                    : 640 kb/s
    Channel(s)                  : 6 channels
    Channel layout              : L R C LFE Ls Rs
    Sampling rate               : 48.0 kHz
    Frame rate                  : 31.250 FPS (1536 SPF)
    Compression mode            : Lossy
    Stream size                 : 426 MiB (18%)
    Title                       : Español Latino EAC3 [CinemaniaHDD]
    Language                    : Spanish
    Service kind                : Complete Main
    Default                     : No
    Forced                      : No

    Audio #3
    ID                          : 4
    Format                      : E-AC-3
    Format/Info                 : Enhanced AC-3
    Commercial name             : Dolby Digital Plus
    Codec ID                    : A_EAC3
    Duration                    : 1 h 33 min
    Bit rate mode               : Constant
    Bit rate                    : 640 kb/s
    Channel(s)                  : 6 channels
    Channel layout              : L R C LFE Ls Rs
    Sampling rate               : 48.0 kHz
    Frame rate                  : 31.250 FPS (1536 SPF)
    Compression mode            : Lossy
    Stream size                 : 426 MiB (18%)
    Title                       : Ingles [CinemaniaHDD]
    Language                    : English
    Service kind                : Complete Main
    Default                     : No
    Forced                      : No

    Text #1
    ID                          : 5
    Format                      : UTF-8
    Codec ID                    : S_TEXT/UTF8
    Codec ID/Info               : UTF-8 Plain Text
    Duration                    : 1 h 31 min
    Bit rate                    : 4 b/s
    Count of elements           : 80
    Stream size                 : 3.33 KiB (0%)
    Title                       : Forzados-SRT [CinemaniaHDD]
    Language                    : Spanish
    Default                     : Yes
    Forced                      : Yes

    Text #2
    ID                          : 6
    Format                      : UTF-8
    Codec ID                    : S_TEXT/UTF8
    Codec ID/Info               : UTF-8 Plain Text
    Duration                    : 1 h 31 min
    Bit rate                    : 85 b/s
    Count of elements           : 1316
    Stream size                 : 57.5 KiB (0%)
    Title                       : Español-SRT [CinemaniaHDD]
    Language                    : Spanish
    Default                     : No
    Forced                      : No

  • Peso: 2.25 GiB

Sinopsis

Descargar Skandal!: La Caída de Wirecard (2022) NF WEB-DL 1080p Latino. Documental. La ambiciosa empresa de pagos digitales Wirecard impresionó al sector financiero con su éxito descomunal. Hasta que un tenaz equipo de periodistas destapó el gran fraude.

Ficha técnica

Video trailer de la película

Enlaces de descarga

Rip de Bluray

Descargar Skandal!: La Caída de Wirecard (2022) NF WEB-DL 1080p Latino




Aportes de DPeliculasHDmega la pass es:dpeliculashdmega.org Aportes de CinemaniaHD la pass es:cinemaniahdd.com
Guardado en : Documental , Netflix

Películas relacionadas

  • El Perfumista (2022) NF WEB-DL 1080p Latino

    El Perfumista (2022) NF WEB-DL 1080p Latino

    2022
    El Perfumista (2022) NF WEB-DL 1080p Latino

    1h 36m 2022

    Descargar El Perfumista (2022) NF WEB-DL 1080p Latino. Para recuperar su sentido del olfato y el afecto...

    Director: Nils Willbrandt

    Género: Crimen

    Actores: Sólveig Arnarsdóttir

  • Cobra Kai (2022) Temporada 5 NF WEB-DL 1080p Latino

    Cobra Kai (2022) Temporada 5 NF WEB-DL 1080p Latino

    2018
    Cobra Kai (2022) Temporada 5 NF WEB-DL 1080p Latino

    0h 30m 2018

    Descargar Cobra Kai (2022) Temporada 5 NF WEB-DL 1080p Latino. Cobra Kai tiene lugar treinta y cuatro...

    Director: Josh Heald

    Género: Action & Adventure

    Actores: Xolo Mariduena

  • Cobra Kai (2021) Temporada 4 NF WEB-DL 1080p Latino

    Cobra Kai (2021) Temporada 4 NF WEB-DL 1080p Latino

    2018
    Cobra Kai (2021) Temporada 4 NF WEB-DL 1080p Latino

    0h 30m 2018

    Descargar Cobra Kai (2021) Temporada 4 NF WEB-DL 1080p Latino. Todo comenzaba a salir bien y a resolverse...

    Director: Josh Heald

    Género: Action & Adventure

    Actores: Xolo Mariduena

descargar Skandal!: La Caída de Wirecard (2022) NF WEB-DL 1080p Latino WEBDL 1080p gratis, Skandal!: La Caída de Wirecard (2022) NF WEB-DL 1080p Latino WEBDL mega 1 link, Skandal!: La Caída de Wirecard (2022) NF WEB-DL 1080p Latino WEBDL pelicula completa, descargar Skandal!: La Caída de Wirecard (2022) NF WEB-DL 1080p Latino WEBDL gratis en mega.

Skandal!: La Caída de Wirecard (2022) NF WEB-DL 1080p Latino pelicula full hd, Skandal!: La Caída de Wirecard (2022) NF WEB-DL 1080p Latino mega latino, Skandal!: La Caída de Wirecard (2022) NF WEB-DL 1080p Latino 4k latino, Skandal!: La Caída de Wirecard (2022) NF WEB-DL 1080p Latino pelicula completa, Skandal!: La Caída de Wirecard (2022) NF WEB-DL 1080p Latino descargar gratis, descargar Skandal!: La Caída de Wirecard (2022) NF WEB-DL 1080p Latino pelicula latino, Skandal!: La Caída de Wirecard (2022) NF WEB-DL 1080p Latino 1 link mega, Skandal!: La Caída de Wirecard (2022) NF WEB-DL 1080p Latino 1 link google drive, Skandal!: La Caída de Wirecard (2022) NF WEB-DL 1080p Latino hd 1080p latino.
Comentarios 0