×

¿Problemas para descargar con Mozilla, EDGE? Deshabilita la opción "Abrir vinculos en una pestaña nueva" tal como lo muestra ésta imagen.

Six Feet Under (2002) Temporada 2 HMAX WEB-DL 1080p Latino

91 vistas

Información de Six Feet Under (2002) Temporada 2 HMAX WEB-DL 1080p Latino

Datos de la película

  • Calidad: WEBDL
  • Audio: Español Latino AC3 2.0 WEB-DL - Ingles AC3 2.0 WEB-DL
  • Subtitulos: Español Latino SRT
  • Resolución: 1440x1080p
  • Formato: MKV
  • Codec: H.264
  • Encoder: CinemaniaHD
  • Mediainfo: Clic para Mostrar Datos Ver
  • Six Feet Under S02E01 HMAX WEB 1080p Latino.mkv
    Format                      : Matroska
    Format version              : Version 4
    File size                   : 3.62 GiB
    Duration                    : 57 min 28 s
    Overall bit rate mode       : Variable
    Overall bit rate            : 9 012 kb/s
    Movie name                  : Six Feet Under S02E01 - In the Game [1080p] CinemaniaHDD.Net
    Encoded date                : UTC 2023-12-23 17:14:04
    Writing application         : mkvmerge v58.0.0 ('Supper's Ready') 32-bit
    Writing library             : libebml v1.4.2 + libmatroska v1.6.4
    Attachments                 : CINEMANIAHD.png
    Site                        : CinemaniaHDD.Net
    Uploader                    : Melkor

    Video
    ID                          : 1
    Format                      : AVC
    Format/Info                 : Advanced Video Codec
    Format profile              : High@L4
    Format settings             : CABAC / 4 Ref Frames
    Format settings, CABAC      : Yes
    Format settings, Reference  : 4 frames
    Codec ID                    : V_MPEG4/ISO/AVC
    Duration                    : 57 min 28 s
    Bit rate mode               : Variable
    Bit rate                    : 8 250 kb/s
    Maximum bit rate            : 12.4 Mb/s
    Width                       : 1 440 pixels
    Height                      : 1 080 pixels
    Display aspect ratio        : 4:3
    Frame rate mode             : Constant
    Frame rate                  : 29.970 (30000/1001) FPS
    Color space                 : YUV
    Chroma subsampling          : 4:2:0
    Bit depth                   : 8 bits
    Scan type                   : Progressive
    Bits/(Pixel*Frame)          : 0.177
    Stream size                 : 3.31 GiB (91%)
    Title                       : WEB HD1080p [CinemaniaHDD]
    Writing library             : x264 core 157 r2965 861cec4
    Encoding settings           : cabac=1 / ref=4 / deblock=1:0:0 / analyse=0x3:0x113 / me=hex / subme=7 / psy=1 / psy_rd=1.00:0.00 / mixed_ref=1 / me_range=16 / chroma_me=1 / trellis=1 / 8x8dct=1 / cqm=0 / deadzone=21,11 / fast_pskip=1 / chroma_qp_offset=-2 / threads=34 / lookahead_threads=5 / sliced_threads=0 / nr=0 / decimate=1 / interlaced=0 / bluray_compat=0 / constrained_intra=0 / bframes=3 / b_pyramid=2 / b_adapt=1 / b_bias=0 / direct=1 / weightb=1 / open_gop=0 / weightp=2 / keyint=120 / keyint_min=120 / scenecut=40 / intra_refresh=0 / rc_lookahead=40 / rc=2pass / mbtree=1 / bitrate=8250 / ratetol=1.0 / qcomp=0.60 / qpmin=0 / qpmax=69 / qpstep=4 / cplxblur=20.0 / qblur=0.5 / vbv_maxrate=12375 / vbv_bufsize=6187 / nal_hrd=vbr / filler=0 / ip_ratio=1.40 / aq=1:1.00
    Default                     : Yes
    Forced                      : No
    Color range                 : Limited
    Color primaries             : BT.709
    Transfer characteristics    : BT.709
    Matrix coefficients         : BT.709

    Audio #1
    ID                          : 2
    Format                      : AC-3
    Format/Info                 : Audio Coding 3
    Commercial name             : Dolby Digital
    Codec ID                    : A_AC3
    Duration                    : 57 min 28 s
    Bit rate mode               : Constant
    Bit rate                    : 384 kb/s
    Channel(s)                  : 2 channels
    Channel layout              : L R
    Sampling rate               : 48.0 kHz
    Frame rate                  : 31.250 FPS (1536 SPF)
    Compression mode            : Lossy
    Stream size                 : 158 MiB (4%)
    Title                       : Español Latino [CinemaniaHDD]
    Language                    : Spanish
    Service kind                : Complete Main
    Default                     : Yes
    Forced                      : No

    Audio #2
    ID                          : 3
    Format                      : AC-3
    Format/Info                 : Audio Coding 3
    Commercial name             : Dolby Digital
    Codec ID                    : A_AC3
    Duration                    : 57 min 28 s
    Bit rate mode               : Constant
    Bit rate                    : 384 kb/s
    Channel(s)                  : 2 channels
    Channel layout              : L R
    Sampling rate               : 48.0 kHz
    Frame rate                  : 31.250 FPS (1536 SPF)
    Compression mode            : Lossy
    Stream size                 : 158 MiB (4%)
    Title                       : Ingles [CinemaniaHDD]
    Language                    : English
    Service kind                : Complete Main
    Default                     : No
    Forced                      : No

    Text
    ID                          : 4
    Format                      : UTF-8
    Codec ID                    : S_TEXT/UTF8
    Codec ID/Info               : UTF-8 Plain Text
    Duration                    : 53 min 20 s
    Bit rate                    : 58 b/s
    Count of elements           : 673
    Stream size                 : 22.7 KiB (0%)
    Title                       : Español-SRT [CinemaniaHDD]
    Language                    : Spanish
    Default                     : No
    Forced                      : No

    Menu
    00:00:06.772                : Intro

  • Peso: 3.5 GiB -- 45.7 GiB -- 13 Chapters

Sinopsis

Descargar Six Feet Under (2002) Temporada 2 HMAX WEB-DL 1080p Latino. Una mirada oscuramente cómica a los miembros de una familia disfuncional de Los Ángeles que dirige un negocio funerario. Cuando la muerte es asunto tuyo, ¿cuál es tu vida? Para la familia Fisher, el mundo fuera de la funeraria de propiedad familiar sigue siendo al menos tan desafiante como, y mucho menos predecible, que el que está adentro.

Temporada 2: En la segunda temporada de la serie, Ruth vuelve a los seminarios de auto-ayuda para reinventar su vida. Nate, a su vez, se enfrenta a problemas de salud.

Ficha técnica

Video trailer de la película

Enlaces de descarga

Rip de Bluray

Descargar Six Feet Under (2002) Temporada 2 HMAX WEB-DL 1080p Latino




Aportes de DPeliculasHDmega la pass es:dpeliculashdmega.org Aportes de CinemaniaHD la pass es:cinemaniahdd.com Aportes recientes:cinemaniahdd.net
Guardado en : Drama , HBOMAX , Series

Películas relacionadas

descargar Six Feet Under (2002) Temporada 2 HMAX WEB-DL 1080p Latino WEBDL 1080p gratis, Six Feet Under (2002) Temporada 2 HMAX WEB-DL 1080p Latino WEBDL mega 1 link, Six Feet Under (2002) Temporada 2 HMAX WEB-DL 1080p Latino WEBDL serie completa, descargar Six Feet Under (2002) Temporada 2 HMAX WEB-DL 1080p Latino WEBDL gratis en mega.

Six Feet Under (2002) Temporada 2 HMAX WEB-DL 1080p Latino pelicula full hd, Six Feet Under (2002) Temporada 2 HMAX WEB-DL 1080p Latino mega latino, Six Feet Under (2002) Temporada 2 HMAX WEB-DL 1080p Latino 4k latino, Six Feet Under (2002) Temporada 2 HMAX WEB-DL 1080p Latino pelicula completa, Six Feet Under (2002) Temporada 2 HMAX WEB-DL 1080p Latino descargar gratis, descargar Six Feet Under (2002) Temporada 2 HMAX WEB-DL 1080p Latino pelicula latino, Six Feet Under (2002) Temporada 2 HMAX WEB-DL 1080p Latino 1 link mega, Six Feet Under (2002) Temporada 2 HMAX WEB-DL 1080p Latino 1 link google drive, Six Feet Under (2002) Temporada 2 HMAX WEB-DL 1080p Latino hd 1080p latino.
Comentarios 0