Sins and Seductions (2018) Star WEB-DL 1080p Latino

55 vistas
1 estrella2 estrellas3 estrellas4 estrellas5 estrellas (1 votos, promedio: 5,00 de 5)
Cargando...

Información de Sins and Seductions (2018) Star WEB-DL 1080p Latino

Datos de la película

  • Calidad: WEBDL
  • Audio: Español Latino AC3 2.0 - Ingles AC3 2.0
  • Subtitulos: Español Latino SRT- FORZADOS SRT
  • Resolución: 1920x1080
  • Formato: MKV
  • Codec: H.264
  • Encoder: cinemaniahdd
  • Mediainfo: Clic para Mostrar Datos Ver
  • Sins and Seductions (2018) Star WEB-DL 1080p Latino [CNMNHDD].mkv
    Format                      : Matroska
    Format version              : Version 4
    File size                   : 3.11 GiB
    Duration                    : 1 h 25 min
    Overall bit rate            : 5 231 kb/s
    Movie name                  : Sins and Seductions (2018) - CinemaniaHDD.Net
    Encoded date                : UTC 2021-03-05 23:39:05
    Writing application         : mkvmerge v51.0.0 ('I Wish') 64-bit
    Writing library             : libebml v1.4.0 + libmatroska v1.6.2

    Video
    ID                          : 1
    Format                      : AVC
    Format/Info                 : Advanced Video Codec
    Format profile              : High@L4
    Format settings             : CABAC / 2 Ref Frames
    Format settings, CABAC      : Yes
    Format settings, Reference  : 2 frames
    Codec ID                    : V_MPEG4/ISO/AVC
    Duration                    : 1 h 25 min
    Bit rate                    : 5 000 kb/s
    Width                       : 1 920 pixels
    Height                      : 1 080 pixels
    Display aspect ratio        : 16:9
    Frame rate mode             : Constant
    Frame rate                  : 29.970 (29970/1000) FPS
    Color space                 : YUV
    Chroma subsampling          : 4:2:0
    Bit depth                   : 8 bits
    Scan type                   : Progressive
    Bits/(Pixel*Frame)          : 0.080
    Stream size                 : 2.96 GiB (95%)
    Title                       : CinemaniaHDD
    Writing library             : x264 core 148 r2579M 73ae2d1
    Encoding settings           : cabac=1 / ref=2 / deblock=1:0:0 / analyse=0x3:0x113 / me=hex / subme=2 / psy=1 / psy_rd=1.00:0.00 / mixed_ref=0 / me_range=16 / chroma_me=1 / trellis=0 / 8x8dct=1 / cqm=0 / deadzone=21,11 / fast_pskip=1 / chroma_qp_offset=0 / threads=4 / lookahead_threads=1 / sliced_threads=0 / nr=250 / decimate=1 / interlaced=0 / bluray_compat=0 / stitchable=1 / constrained_intra=0 / bframes=0 / weightp=1 / keyint=250 / keyint_min=25 / scenecut=40 / intra_refresh=0 / rc_lookahead=10 / rc=2pass / mbtree=1 / bitrate=5000 / ratetol=1.0 / qcomp=0.60 / qpmin=5 / qpmax=69 / qpstep=4 / cplxblur=20.0 / qblur=0.5 / vbv_maxrate=10000 / vbv_bufsize=5000 / nal_hrd=none / filler=0 / ip_ratio=1.40 / aq=1:1.00
    Language                    : Spanish
    Default                     : Yes
    Forced                      : No
    Color range                 : Limited
    Color primaries             : BT.709
    Transfer characteristics    : BT.709
    Matrix coefficients         : BT.709

    Audio #1
    ID                          : 2
    Format                      : AAC LC SBR
    Format/Info                 : Advanced Audio Codec Low Complexity with Spectral Band Replication
    Commercial name             : HE-AAC
    Format settings             : Explicit
    Codec ID                    : A_AAC-2
    Duration                    : 1 h 25 min
    Bit rate                    : 127 kb/s
    Channel(s)                  : 2 channels
    Channel layout              : L R
    Sampling rate               : 48.0 kHz
    Frame rate                  : 23.438 FPS (2048 SPF)
    Compression mode            : Lossy
    Stream size                 : 77.2 MiB (2%)
    Title                       : Español latino [CinemaniaHDD]
    Language                    : Spanish
    Default                     : Yes
    Forced                      : Yes

    Audio #2
    ID                          : 3
    Format                      : AAC LC SBR
    Format/Info                 : Advanced Audio Codec Low Complexity with Spectral Band Replication
    Commercial name             : HE-AAC
    Format settings             : Explicit
    Codec ID                    : A_AAC-2
    Duration                    : 1 h 25 min
    Bit rate                    : 127 kb/s
    Channel(s)                  : 2 channels
    Channel layout              : L R
    Sampling rate               : 48.0 kHz
    Frame rate                  : 23.438 FPS (2048 SPF)
    Compression mode            : Lossy
    Stream size                 : 77.2 MiB (2%)
    Title                       : Inglés [CinemaniaHDD]
    Language                    : English
    Default                     : No
    Forced                      : No

    Text #1
    ID                          : 4
    Format                      : UTF-8
    Codec ID                    : S_TEXT/UTF8
    Codec ID/Info               : UTF-8 Plain Text
    Duration                    : 45 min 53 s
    Bit rate                    : 0 b/s
    Count of elements           : 4
    Stream size                 : 131 Bytes (0%)
    Title                       : Forzados [CinemaniaHDD]
    Language                    : Spanish
    Default                     : Yes
    Forced                      : Yes

    Text #2
    ID                          : 5
    Format                      : UTF-8
    Codec ID                    : S_TEXT/UTF8
    Codec ID/Info               : UTF-8 Plain Text
    Duration                    : 1 h 22 min
    Bit rate                    : 50 b/s
    Count of elements           : 885
    Stream size                 : 30.3 KiB (0%)
    Title                       : Español latino [CinemaniaHDD]
    Language                    : Spanish
    Default                     : No
    Forced                      : No

     

  • Peso: 3.11 GiB

Sinopsis

Cuando la progresista pastora Leslie Reynolds da la bienvenida a una dulce pareja a su iglesia no se podía esperar que se encontraría enredada en una obsesión con su nuevo y atractivo feligrés.

Ficha técnica

Video trailer de la película

Enlaces de descarga

Rip de Bluray

Descargar Sins and Seductions (2018) Star WEB-DL 1080p Latino




Aportes de DPeliculasHDmega la pass es:dpeliculashdmega.org Aportes de CinemaniaHD la pass es:cinemaniahdd.com
Guardado en : Misterio , Película de TV , Suspenso

Películas relacionadas

  • Horizon Line (2020) HD 1080p Latino

    Horizon Line (2020) HD 1080p Latino

    2020
    Horizon Line (2020) HD 1080p Latino

    0.0 1h 31m 2020

    Descargar Horizon Line (2020) HD 1080p Latino. Una pareja que viaja en un avión pequeño para asistir...

    Director: Mikael Marcimain

    Género: HD 1080p

    Actores: Pearl Mackie

  • Horizon Line (2020) PLACEBO Full HD 1080p Latino

    Horizon Line (2020) PLACEBO Full HD 1080p Latino

    2020
    Horizon Line (2020) PLACEBO Full HD 1080p Latino

    0.0 1h 31m 2020

    Descargar Horizon Line (2020) PLACEBO Full HD 1080p Latino. Una pareja que viaja en un avión pequeño...

    Director: Mikael Marcimain

    Género: FULL 1080p Plateadas

    Actores: Pearl Mackie

  • Horizon Line (2020) REMUX 1080p Latino

    Horizon Line (2020) REMUX 1080p Latino

    2020
    Horizon Line (2020) REMUX 1080p Latino

    5.0 1h 31m 2020

    Descargar Horizon Line (2020) REMUX 1080p Latino. Una pareja que viaja en un avión pequeño para asistir...

    Director: Mikael Marcimain

    Género: Remux

    Actores: Pearl Mackie

  • Sola (2020) HD 1080p Latino

    Sola (2020) HD 1080p Latino

    2020
    Sola (2020) HD 1080p Latino

    0.0 1h 40m 2020

    Descargar Sola (2020) HD 1080p Latino. Una mujer viuda que viaja sola es secuestrada por un asesino a...

    Director: John Hyams

    Género: Drama

    Actores: Shelly Lipkin

  • Sola (2020) REMUX 1080p Latino

    Sola (2020) REMUX 1080p Latino

    2020
    Sola (2020) REMUX 1080p Latino

    5.0 1h 40m 2020

    Descargar Sola (2020) REMUX 1080p Latino. Una mujer viuda que viaja sola es secuestrada por un asesino...

    Director: John Hyams

    Género: Drama

    Actores: Shelly Lipkin

Sins and Seductions (2018) Star WEB-DL 1080p Latino pelicula full hd, Sins and Seductions (2018) Star WEB-DL 1080p Latino mega latino, Sins and Seductions (2018) Star WEB-DL 1080p Latino 4k latino, Sins and Seductions (2018) Star WEB-DL 1080p Latino pelicula completa, Sins and Seductions (2018) Star WEB-DL 1080p Latino descargar gratis, descargar Sins and Seductions (2018) Star WEB-DL 1080p Latino pelicula latino, Sins and Seductions (2018) Star WEB-DL 1080p Latino 1 link mega, Sins and Seductions (2018) Star WEB-DL 1080p Latino 1 link google drive, Sins and Seductions (2018) Star WEB-DL 1080p Latino hd 1080p latino.
Comentarios 0