Siniestro (2012) REMUX 1080p Latino

22 vistas
1 estrella2 estrellas3 estrellas4 estrellas5 estrellas (Ninguna valoración todavía)
Cargando...

Información de Siniestro (2012) REMUX 1080p Latino

Datos de la película

  • Calidad: Full 1080p
  • Audio: Español Latino AC3 5.1 BLURAY - Ingles DTS 5.1 BLURAY
  • Subtitulos: Español Latino SRT- FORZADOS SRT
  • Resolución: 1920x1080p
  • Formato: MKV
  • Codec: H.264
  • Encoder: CinefiloCool
  • Mediainfo: Clic para Mostrar Datos Ver
  • Siniestro (2012) REMUX 1080p Latino-CMHDD.mkv
    Format                      : Matroska
    Format version              : Version 4
    File size                   : 24.6 GiB
    Duration                    : 1 h 49 min
    Overall bit rate mode       : Variable
    Overall bit rate            : 32.0 Mb/s
    Movie name                  : Sinister (2012) CinemaniaHDD.Net
    Encoded date                : UTC 2020-10-15 06:49:34
    Writing application         : mkvmerge v51.0.0 ('I Wish') 64-bit
    Writing library             : libebml v1.4.0 + libmatroska v1.6.2
    Attachments                 : CINEMANIAHD.png

    Video
    ID                          : 1
    Format                      : AVC
    Format/Info                 : Advanced Video Codec
    Format profile              : High@L4.1
    Format settings             : CABAC / 3 Ref Frames
    Format settings, CABAC      : Yes
    Format settings, Reference  : 3 frames
    Format settings, GOP        : M=4, N=24
    Codec ID                    : V_MPEG4/ISO/AVC
    Duration                    : 1 h 49 min
    Bit rate mode               : Variable
    Bit rate                    : 27.8 Mb/s
    Maximum bit rate            : 35.0 Mb/s
    Width                       : 1 920 pixels
    Height                      : 1 080 pixels
    Display aspect ratio        : 16:9
    Frame rate mode             : Constant
    Frame rate                  : 23.976 (24000/1001) FPS
    Standard                    : NTSC
    Color space                 : YUV
    Chroma subsampling          : 4:2:0
    Bit depth                   : 8 bits
    Scan type                   : Progressive
    Bits/(Pixel*Frame)          : 0.560
    Stream size                 : 21.3 GiB (87%)
    Title                       : REMUX 1080p [CinemaniaHDD]
    Default                     : Yes
    Forced                      : No
    Color range                 : Limited
    Color primaries             : BT.709
    Transfer characteristics    : BT.709
    Matrix coefficients         : BT.709

    Audio #1
    ID                          : 2
    Format                      : AC-3
    Format/Info                 : Audio Coding 3
    Commercial name             : Dolby Digital
    Codec ID                    : A_AC3
    Duration                    : 1 h 49 min
    Bit rate mode               : Constant
    Bit rate                    : 640 kb/s
    Channel(s)                  : 6 channels
    Channel layout              : L R C LFE Ls Rs
    Sampling rate               : 48.0 kHz
    Frame rate                  : 31.250 FPS (1536 SPF)
    Compression mode            : Lossy
    Stream size                 : 502 MiB (2%)
    Title                       : Español Latino [CinemaniaHDD]
    Language                    : Spanish
    Service kind                : Complete Main
    Default                     : Yes
    Forced                      : No

    Audio #2
    ID                          : 3
    Format                      : DTS XLL
    Format/Info                 : Digital Theater Systems
    Commercial name             : DTS-HD Master Audio
    Codec ID                    : A_DTS
    Duration                    : 1 h 49 min
    Bit rate mode               : Variable
    Bit rate                    : 3 549 kb/s
    Channel(s)                  : 6 channels
    Channel layout              : C L R Ls Rs LFE
    Sampling rate               : 48.0 kHz
    Frame rate                  : 93.750 FPS (512 SPF)
    Bit depth                   : 24 bits
    Compression mode            : Lossless
    Stream size                 : 2.72 GiB (11%)
    Title                       : Ingles [CinemaniaHDD]
    Language                    : English
    Default                     : No
    Forced                      : No

    Text #1
    ID                          : 4
    Format                      : UTF-8
    Codec ID                    : S_TEXT/UTF8
    Codec ID/Info               : UTF-8 Plain Text
    Duration                    : 1 h 41 min
    Bit rate                    : 0 b/s
    Count of elements           : 17
    Stream size                 : 413 Bytes (0%)
    Title                       : Forzados-SRT [CinemaniaHDD]
    Language                    : Spanish
    Default                     : Yes
    Forced                      : No

    Text #2
    ID                          : 5
    Format                      : UTF-8
    Codec ID                    : S_TEXT/UTF8
    Codec ID/Info               : UTF-8 Plain Text
    Duration                    : 1 h 43 min
    Bit rate                    : 38 b/s
    Count of elements           : 842
    Stream size                 : 29.3 KiB (0%)
    Title                       : Español-SRT [CinemaniaHDD]
    Language                    : Spanish
    Default                     : No
    Forced                      : No

    Text #3
    ID                          : 6
    Format                      : PGS
    Muxing mode                 : zlib
    Codec ID                    : S_HDMV/PGS
    Codec ID/Info               : Picture based subtitle format used on BDs/HD-DVDs
    Duration                    : 1 h 40 min
    Bit rate                    : 25.8 kb/s
    Count of elements           : 1688
    Stream size                 : 18.5 MiB (0%)
    Title                       : Ingles-PGS [CinemaniaHDD]
    Language                    : English
    Default                     : No
    Forced                      : No

    Menu
    00:00:00.000                : en:Chapter 1
    00:10:47.605                : en:Chapter 2
    00:19:12.360                : en:Chapter 3
    00:27:15.217                : en:Chapter 4
    00:37:05.557                : en:Chapter 5
    00:46:42.383                : en:Chapter 6
    00:56:37.144                : en:Chapter 7
    01:07:20.411                : en:Chapter 8
    01:17:10.751                : en:Chapter 9
    01:26:22.803                : en:Chapter 10
    01:33:41.616                : en:Chapter 11
    01:43:15.147                : en:Chapter 12

  • Peso: 24.6 GiB

Sinopsis

Descargar Siniestro (2012) REMUX 1080p Latino. Ellison (Ethan Hawke, ‘Gattaca’), es un periodista especializado en escribir artículos y novelas sobre casos de crímenes célebres. Para poder dedicarse a esta tarea en cuerpo y alma, ha instaurado una sistema de vida itinerante un tanto particular con su familia: se trasladan todos juntos de condado en condado para instalarse durante un tiempo en el lugar de los hechos y así poder investigar en profundidad cada uno de los casos. Una de estas investigaciones le llevará a una casa donde toda la familia murió asesinada. Sin embargo, una vez en la casa, la familia descubrirá una serie de documentación y de cintas de vídeo en las que se recogen los detalles de estos misteriosos homicidios. Ellison comenzará a tirar del hilo de estas pistas y descubrirá que las muertes no han sido causadas por la mano de ningún ser humano, sino de una entidad sobrenatural que todavía se encuentra presente en la casa…

Ficha técnica

Video trailer de la película

Enlaces de descarga

Rip de Bluray

Descargar Siniestro (2012) REMUX 1080p Latino




Aportes de DPeliculasHDmega la pass es:dpeliculashdmega.org Aportes de CinemaniaHD la pass es:cinemaniahdd.com
Guardado en : Misterio , Remux , Suspenso , Terror

Películas relacionadas

  • Fuga De Pretoria (2020) HD 1080p Latino

    Fuga De Pretoria (2020) HD 1080p Latino

    2020
    Fuga De Pretoria (2020) HD 1080p Latino

    5.0 1h 42m 2020

    Descargar Fuga De Pretoria (2020) HD 1080p Latino. Sudáfrica, 1978. Tim Jenkin y Stephen Lee, dos activistas...

    Director: Wayne Nassereddine

    Género: Drama

    Actores: Vuyo Loko

  • Fuga De Pretoria (2020) PLACEBO Full HD 1080p Latino

    Fuga De Pretoria (2020) PLACEBO Full HD 1080p Latino

    2020
    Fuga De Pretoria (2020) PLACEBO Full HD 1080p Latino

    5.0 1h 42m 2020

    Descargar Fuga De Pretoria (2020) PLACEBO Full HD 1080p Latino. Sudáfrica, 1978. Tim Jenkin y Stephen...

    Director: Wayne Nassereddine

    Género: Drama

    Actores: Vuyo Loko

  • Fuga De Pretoria (2020) REMUX 1080p Latino

    Fuga De Pretoria (2020) REMUX 1080p Latino

    2020
    Fuga De Pretoria (2020) REMUX 1080p Latino

    5.0 1h 42m 2020

    Descargar Fuga De Pretoria (2020) REMUX 1080p Latino. Sudáfrica, 1978. Tim Jenkin y Stephen Lee, dos...

    Director: Wayne Nassereddine

    Género: Drama

    Actores: Vuyo Loko

Comentarios 1
  • ocpgaiden - 17 octubre, 2020

    Gracias por el remux, saludos