Siniestro (2012) Full HD 1080p Latino

239 vistas
1 estrella2 estrellas3 estrellas4 estrellas5 estrellas (Ninguna valoración todavía)
Cargando...

Información de Siniestro (2012) Full HD 1080p Latino

Datos de la película

  • Calidad: Full 1080p
  • Audio: Español Latino AC3 5.1 BLURAY - Ingles DTS 5.1 BLURAY
  • Subtitulos: Español Latino SRT- FORZADOS SRT
  • Resolución: 1920x1080p
  • Formato: MKV
  • Codec: H.264
  • Encoder: CinefiloCool
  • Mediainfo: Clic para Mostrar Datos Ver
  • Siniestro (2012) Full HD 1080p Latino-CMHDD.mkv
    Format                      : Matroska
    Format version              : Version 4
    File size                   : 4.97 GiB
    Duration                    : 1 h 49 min
    Overall bit rate            : 6 483 kb/s
    Movie name                  : Sinister (2012) CinemaniaHDD.Net
    Encoded date                : UTC 2020-10-15 17:29:09
    Writing application         : mkvmerge v51.0.0 ('I Wish') 64-bit
    Writing library             : libebml v1.4.0 + libmatroska v1.6.2
    Attachments                 : CINEMANIAHD.png

    Video
    ID                          : 1
    Format                      : AVC
    Format/Info                 : Advanced Video Codec
    Format profile              : High@L4.1
    Format settings             : CABAC / 4 Ref Frames
    Format settings, CABAC      : Yes
    Format settings, Reference  : 4 frames
    Codec ID                    : V_MPEG4/ISO/AVC
    Duration                    : 1 h 49 min
    Bit rate                    : 5 065 kb/s
    Width                       : 1 920 pixels
    Height                      : 1 080 pixels
    Display aspect ratio        : 16:9
    Frame rate mode             : Constant
    Frame rate                  : 23.976 (24000/1001) FPS
    Color space                 : YUV
    Chroma subsampling          : 4:2:0
    Bit depth                   : 8 bits
    Scan type                   : Progressive
    Bits/(Pixel*Frame)          : 0.102
    Stream size                 : 3.88 GiB (78%)
    Title                       : Full HD1080p [CinemaniaHDD]
    Writing library             : x264 core 157 r2935 545de2f
    Encoding settings           : cabac=1 / ref=4 / deblock=1:0:0 / analyse=0x3:0x133 / me=tesa / subme=11 / psy=1 / psy_rd=1.00:0.00 / mixed_ref=1 / me_range=24 / chroma_me=1 / trellis=2 / 8x8dct=1 / cqm=0 / deadzone=21,11 / fast_pskip=0 / chroma_qp_offset=-2 / threads=24 / lookahead_threads=6 / sliced_threads=0 / nr=0 / decimate=1 / interlaced=0 / bluray_compat=0 / constrained_intra=0 / bframes=16 / b_pyramid=2 / b_adapt=2 / b_bias=0 / direct=3 / weightb=1 / open_gop=0 / weightp=2 / keyint=240 / keyint_min=24 / scenecut=40 / intra_refresh=0 / rc_lookahead=60 / rc=crf / mbtree=1 / crf=19.0 / qcomp=0.60 / qpmin=0 / qpmax=69 / qpstep=4 / vbv_maxrate=62500 / vbv_bufsize=78125 / crf_max=0.0 / nal_hrd=none / filler=0 / ip_ratio=1.40 / aq=1:1.00
    Default                     : Yes
    Forced                      : Yes
    Color range                 : Limited
    Color primaries             : BT.709
    Transfer characteristics    : BT.709
    Matrix coefficients         : BT.709

    Audio #1
    ID                          : 2
    Format                      : AC-3
    Format/Info                 : Audio Coding 3
    Commercial name             : Dolby Digital
    Codec ID                    : A_AC3
    Duration                    : 1 h 49 min
    Bit rate mode               : Constant
    Bit rate                    : 640 kb/s
    Channel(s)                  : 6 channels
    Channel layout              : L R C LFE Ls Rs
    Sampling rate               : 48.0 kHz
    Frame rate                  : 31.250 FPS (1536 SPF)
    Compression mode            : Lossy
    Stream size                 : 502 MiB (10%)
    Title                       : Español Latino [CinemaniaHDD]
    Language                    : Spanish
    Service kind                : Complete Main
    Default                     : Yes
    Forced                      : Yes

    Audio #2
    ID                          : 3
    Format                      : DTS
    Format/Info                 : Digital Theater Systems
    Codec ID                    : A_DTS
    Duration                    : 1 h 49 min
    Bit rate mode               : Constant
    Bit rate                    : 768 kb/s
    Channel(s)                  : 6 channels
    Channel layout              : C L R Ls Rs LFE
    Sampling rate               : 48.0 kHz
    Frame rate                  : 93.750 FPS (512 SPF)
    Bit depth                   : 24 bits
    Compression mode            : Lossy
    Stream size                 : 603 MiB (12%)
    Title                       : Ingles [CinemaniaHDD]
    Language                    : English
    Default                     : No
    Forced                      : No

    Text #1
    ID                          : 4
    Format                      : UTF-8
    Codec ID                    : S_TEXT/UTF8
    Codec ID/Info               : UTF-8 Plain Text
    Duration                    : 1 h 41 min
    Bit rate                    : 0 b/s
    Count of elements           : 17
    Stream size                 : 413 Bytes (0%)
    Title                       : Forzados-SRT [CinemaniaHDD]
    Language                    : Spanish
    Default                     : Yes
    Forced                      : Yes

    Text #2
    ID                          : 5
    Format                      : UTF-8
    Codec ID                    : S_TEXT/UTF8
    Codec ID/Info               : UTF-8 Plain Text
    Duration                    : 1 h 43 min
    Bit rate                    : 38 b/s
    Count of elements           : 842
    Stream size                 : 29.3 KiB (0%)
    Title                       : Español-SRT [CinemaniaHDD]
    Language                    : Spanish
    Default                     : No
    Forced                      : No

    Text #3
    ID                          : 6
    Format                      : PGS
    Muxing mode                 : zlib
    Codec ID                    : S_HDMV/PGS
    Codec ID/Info               : Picture based subtitle format used on BDs/HD-DVDs
    Duration                    : 1 h 40 min
    Bit rate                    : 25.8 kb/s
    Count of elements           : 1688
    Stream size                 : 18.5 MiB (0%)
    Title                       : Ingles-PGS [CinemaniaHDD]
    Language                    : English
    Default                     : No
    Forced                      : No

    Menu
    00:00:00.000                : en:Chapter 1
    00:10:47.605                : en:Chapter 2
    00:19:12.360                : en:Chapter 3
    00:27:15.217                : en:Chapter 4
    00:37:05.557                : en:Chapter 5
    00:46:42.383                : en:Chapter 6
    00:56:37.144                : en:Chapter 7
    01:07:20.411                : en:Chapter 8
    01:17:10.751                : en:Chapter 9
    01:26:22.803                : en:Chapter 10
    01:33:41.616                : en:Chapter 11
    01:43:15.147                : en:Chapter 12

  • Peso: 4.97 GiB

Sinopsis

Descargar Siniestro (2012) Full HD 1080p Latino. Ellison (Ethan Hawke, ‘Gattaca’), es un periodista especializado en escribir artículos y novelas sobre casos de crímenes célebres. Para poder dedicarse a esta tarea en cuerpo y alma, ha instaurado una sistema de vida itinerante un tanto particular con su familia: se trasladan todos juntos de condado en condado para instalarse durante un tiempo en el lugar de los hechos y así poder investigar en profundidad cada uno de los casos. Una de estas investigaciones le llevará a una casa donde toda la familia murió asesinada. Sin embargo, una vez en la casa, la familia descubrirá una serie de documentación y de cintas de vídeo en las que se recogen los detalles de estos misteriosos homicidios. Ellison comenzará a tirar del hilo de estas pistas y descubrirá que las muertes no han sido causadas por la mano de ningún ser humano, sino de una entidad sobrenatural que todavía se encuentra presente en la casa…

Ficha técnica

Video trailer de la película

Enlaces de descarga

Rip de Bluray

Descargar Siniestro (2012) Full HD 1080p Latino




Aportes de DPeliculasHDmega la pass es:dpeliculashdmega.org Aportes de CinemaniaHD la pass es:cinemaniahdd.com

Películas relacionadas

  • Cosa De Hombres (2003) Full HD 1080p Latino

    Cosa De Hombres (2003) Full HD 1080p Latino

    2003
    Cosa De Hombres (2003) Full HD 1080p Latino

    0.0 1h 41m 2003

    Descargar Cosa De Hombres (2003) Full HD 1080p Latino. Paul -Jason Lee- está a punto de casarse con...

    Director: Chris Koch

    Género: Comedia

    Actores: Zahf Paroo

  • Gossip Girl (2021) Temporada 1 HMAX WEB-DL 1080p

    Gossip Girl (2021) Temporada 1 HMAX WEB-DL 1080p

    2021
    Gossip Girl (2021) Temporada 1 HMAX WEB-DL 1080p

    5.0 0h 0m 2021

    Ocho años después de que el sitio web original se apagara, una nueva generación de adolescentes de...

    Director: Joshua Safran

    Género: Drama

    Actores: Zión Moreno

  • The Hatred (2017) WEB-DL 1080p Latino

    The Hatred (2017) WEB-DL 1080p Latino

    2017
    The Hatred (2017) WEB-DL 1080p Latino

    5.0 1h 34m 2017

    Cuatro mujeres jóvenes viajan a la nueva casa de campo de su profesor universitario para una escapada...

    Director: Michael G. Kehoe

    Género: Suspenso

    Actores: Tim DeZarn

  • Servants of War (2019) WEB-DL 1080p Latino

    Servants of War (2019) WEB-DL 1080p Latino

    2019
    Servants of War (2019) WEB-DL 1080p Latino

    5.0 1h 38m 2019

    El conocido profesor Professor Jerzy Abramski es asesinado. De su investigación se encarga el inspector...

    Director: Mariusz Gawryś

    Género: Crimen

    Actores: Zbigniew Stryj

Siniestro (2012) Full HD 1080p Latino pelicula full hd, Siniestro (2012) Full HD 1080p Latino mega latino, Siniestro (2012) Full HD 1080p Latino 4k latino, Siniestro (2012) Full HD 1080p Latino pelicula completa, Siniestro (2012) Full HD 1080p Latino descargar gratis, descargar Siniestro (2012) Full HD 1080p Latino pelicula latino, Siniestro (2012) Full HD 1080p Latino 1 link mega, Siniestro (2012) Full HD 1080p Latino 1 link google drive, Siniestro (2012) Full HD 1080p Latino hd 1080p latino.
Comentarios 0