Siniestro II (2015) 1080p Latino

15 vistas
1 estrella2 estrellas3 estrellas4 estrellas5 estrellas (Ninguna valoración todavía)
Cargando...

Información de Siniestro II (2015) 1080p Latino

Datos de la película

  • Calidad: 1080p
  • Audio: Se especifica abajo de la Sinopsis
  • Subtitulos: Español Latino SRT - Ingles SRT
  • Resolución: 1920x800p
  • Formato: MKV
  • Codec: H.264
  • Encoder: CinefiloCool
  • Mediainfo: Clic para Mostrar Datos Ver
  • Siniestro II (2015) 1080p Latino-CMHDD.mkv
    Format                      : Matroska
    Format version              : Version 4
    File size                   : 3.10 GiB
    Duration                    : 1 h 36 min
    Overall bit rate            : 4 589 kb/s
    Movie name                  : Sinister II (2015) CinemaniaHDD.Net
    Encoded date                : UTC 2020-10-15 15:23:37
    Writing application         : mkvmerge v51.0.0 ('I Wish') 64-bit
    Writing library             : libebml v1.4.0 + libmatroska v1.6.2
    Attachments                 : CINEMANIAHD.png

    Video
    ID                          : 1
    Format                      : AVC
    Format/Info                 : Advanced Video Codec
    Format profile              : High@L4.1
    Format settings             : CABAC / 5 Ref Frames
    Format settings, CABAC      : Yes
    Format settings, Reference  : 5 frames
    Codec ID                    : V_MPEG4/ISO/AVC
    Duration                    : 1 h 36 min
    Bit rate                    : 3 500 kb/s
    Width                       : 1 920 pixels
    Height                      : 800 pixels
    Display aspect ratio        : 2.40:1
    Frame rate mode             : Constant
    Frame rate                  : 23.976 (24000/1001) FPS
    Color space                 : YUV
    Chroma subsampling          : 4:2:0
    Bit depth                   : 8 bits
    Scan type                   : Progressive
    Bits/(Pixel*Frame)          : 0.095
    Stream size                 : 2.37 GiB (76%)
    Title                       : HD1080p [CinemaniaHDD]
    Writing library             : x264 core 157 r2935 545de2f
    Encoding settings           : cabac=1 / ref=5 / deblock=1:-1:-1 / analyse=0x3:0x133 / me=umh / subme=9 / psy=1 / psy_rd=1.00:0.15 / mixed_ref=1 / me_range=16 / chroma_me=1 / trellis=2 / 8x8dct=1 / cqm=0 / deadzone=21,11 / fast_pskip=1 / chroma_qp_offset=-3 / threads=24 / lookahead_threads=2 / sliced_threads=0 / nr=0 / decimate=1 / interlaced=0 / bluray_compat=0 / constrained_intra=0 / bframes=3 / b_pyramid=2 / b_adapt=2 / b_bias=0 / direct=3 / weightb=1 / open_gop=0 / weightp=2 / keyint=240 / keyint_min=24 / scenecut=40 / intra_refresh=0 / rc_lookahead=60 / rc=2pass / mbtree=1 / bitrate=3500 / ratetol=1.0 / qcomp=0.60 / qpmin=0 / qpmax=69 / qpstep=4 / cplxblur=20.0 / qblur=0.5 / vbv_maxrate=62500 / vbv_bufsize=78125 / nal_hrd=none / filler=0 / ip_ratio=1.40 / aq=1:1.00
    Default                     : Yes
    Forced                      : No
    Color range                 : Limited
    Color primaries             : BT.709
    Transfer characteristics    : BT.709
    Matrix coefficients         : BT.709

    Audio #1
    ID                          : 2
    Format                      : AC-3
    Format/Info                 : Audio Coding 3
    Commercial name             : Dolby Digital
    Codec ID                    : A_AC3
    Duration                    : 1 h 36 min
    Bit rate mode               : Constant
    Bit rate                    : 640 kb/s
    Channel(s)                  : 6 channels
    Channel layout              : L R C LFE Ls Rs
    Sampling rate               : 48.0 kHz
    Frame rate                  : 31.250 FPS (1536 SPF)
    Compression mode            : Lossy
    Delay relative to video     : -5 ms
    Stream size                 : 443 MiB (14%)
    Title                       : Español Latino [CinemaniaHDD]
    Language                    : Spanish
    Service kind                : Complete Main
    Default                     : Yes
    Forced                      : No

    Audio #2
    ID                          : 3
    Format                      : AC-3
    Format/Info                 : Audio Coding 3
    Commercial name             : Dolby Digital
    Codec ID                    : A_AC3
    Duration                    : 1 h 36 min
    Bit rate mode               : Constant
    Bit rate                    : 448 kb/s
    Channel(s)                  : 6 channels
    Channel layout              : L R C LFE Ls Rs
    Sampling rate               : 48.0 kHz
    Frame rate                  : 31.250 FPS (1536 SPF)
    Compression mode            : Lossy
    Delay relative to video     : -5 ms
    Stream size                 : 310 MiB (10%)
    Title                       : Ingles [CinemaniaHDD]
    Language                    : English
    Service kind                : Complete Main
    Default                     : No
    Forced                      : No

    Text #1
    ID                          : 4
    Format                      : UTF-8
    Codec ID                    : S_TEXT/UTF8
    Codec ID/Info               : UTF-8 Plain Text
    Duration                    : 1 h 27 min
    Bit rate                    : 0 b/s
    Count of elements           : 13
    Stream size                 : 360 Bytes (0%)
    Title                       : Forzados-SRT [CinemaniaHDD]
    Language                    : Spanish
    Default                     : Yes
    Forced                      : No

    Text #2
    ID                          : 5
    Format                      : UTF-8
    Codec ID                    : S_TEXT/UTF8
    Codec ID/Info               : UTF-8 Plain Text
    Duration                    : 1 h 27 min
    Bit rate                    : 36 b/s
    Count of elements           : 851
    Stream size                 : 23.2 KiB (0%)
    Title                       : Español-SRT [CinemaniaHDD]
    Language                    : Spanish
    Default                     : No
    Forced                      : No

    Text #3
    ID                          : 6
    Format                      : UTF-8
    Codec ID                    : S_TEXT/UTF8
    Codec ID/Info               : UTF-8 Plain Text
    Duration                    : 1 h 25 min
    Bit rate                    : 38 b/s
    Count of elements           : 938
    Stream size                 : 24.4 KiB (0%)
    Title                       : Ingles-SRT [CinemaniaHDD]
    Language                    : English
    Default                     : No
    Forced                      : No

    Menu
    00:00:00.000                : en:Chapter 01
    00:00:34.033                : en:Chapter 02
    00:13:10.371                : en:Chapter 03
    00:25:20.101                : en:Chapter 04
    00:36:27.309                : en:Chapter 05
    00:53:10.896                : en:Chapter 06
    01:03:11.369                : en:Chapter 07
    01:16:46.143                : en:Chapter 08
    01:30:49.527                : en:Chapter 09

  • Peso: 3.10 GB

Sinopsis

Descargar Siniestro II (2015) 1080p Latino. Después de que Ashley Oswalt descuartizara a su familia y desapareciera con Mr. Boggie, una madre y sus hijos mellizos se mudan a la casa donde unos niños poseídos cometieron los asesinatos. Mr. Boogie ha vuelto y acecha a uno de ellos. Secuela de «Sinister» (Scott Derrickson, 2012).

Audio Español Latino AC3 5.1 Amazon – Ingles AC3 5.1 Bluray

Ficha técnica

Video trailer de la película

Enlaces de descarga

Rip de Bluray

Descargar Siniestro II (2015) 1080p Latino




Aportes de DPeliculasHDmega la pass es:dpeliculashdmega.org Aportes de CinemaniaHD la pass es:cinemaniahdd.com
Guardado en : HD 1080p , Terror

Películas relacionadas

  • Fuga De Pretoria (2020) HD 1080p Latino

    Fuga De Pretoria (2020) HD 1080p Latino

    2020
    Fuga De Pretoria (2020) HD 1080p Latino

    5.0 1h 42m 2020

    Descargar Fuga De Pretoria (2020) HD 1080p Latino. Sudáfrica, 1978. Tim Jenkin y Stephen Lee, dos activistas...

    Director: Wayne Nassereddine

    Género: Drama

    Actores: Vuyo Loko

  • Espejos Siniestros (2008) REMUX 1080p Latino

    Espejos Siniestros (2008) REMUX 1080p Latino

    2008
    Espejos Siniestros (2008) REMUX 1080p Latino

    5.0 1h 52m 2008

    Descargar Espejos Siniestros (2008) REMUX 1080p Latino. Ben Carson (Kiefer Sutherland) ha tenido días...

    Director: Alexandre Aja

    Género: Drama

    Actores: William Meredith

  • The Current Occupant (2020) WEB-DL 1080p Latino

    The Current Occupant (2020) WEB-DL 1080p Latino

    2020
    The Current Occupant (2020) WEB-DL 1080p Latino

    5.0 1h 26m 2020

    Henry Cameron (Barry Watson) se despierta en la sala de psiquiatría de un hospital con la plena creencia...

    Director: Julius Ramsay

    Género: Misterio

    Actores: Sonita Henry

Comentarios 0