Sing 2: ¡Ven y canta de nuevo! (2021) WEB-DL 4K UHD HDR Latino

1.094 vistas

Información de Sing 2: ¡Ven y canta de nuevo! (2021) WEB-DL 4K UHD HDR Latino

Datos de la película

  • Calidad: WEBDL
  • Audio: Español Latino AC3 5.1 WEB-DL - Ingles AC3 5.1 WEB-DL
  • Subtitulos: Español Latino SRT- FORZADOS SRT
  • Resolución: 3840x2074p
  • Formato: MKV
  • Codec: HEVC
  • Encoder: Melkor
  • Mediainfo: Clic para Mostrar Datos Ver
  • Sing 2 (2021) WEB UHD HDR Latino.mkv
    Format                      : Matroska
    Format version              : Version 4
    File size                   : 19.7 GiB
    Duration                    : 1 h 49 min
    Overall bit rate            : 25.7 Mb/s
    Movie name                  : Sing 2 (2021) CinemaniaHDD.Net
    Encoded date                : UTC 2022-01-09 18:24:48
    Writing application         : mkvmerge v56.1.0 ('My Friend') 64-bit
    Writing library             : libebml v1.4.2 + libmatroska v1.6.4
    Attachments                 : CINEMANIAHD.png

    Video
    ID                          : 1
    Format                      : HEVC
    Format/Info                 : High Efficiency Video Coding
    Format profile              : Main 10@L5@High
    HDR format                  : SMPTE ST 2086, HDR10 compatible
    Codec ID                    : V_MPEGH/ISO/HEVC
    Duration                    : 1 h 49 min
    Bit rate                    : 24.5 Mb/s
    Width                       : 3 840 pixels
    Height                      : 2 074 pixels
    Display aspect ratio        : 1.85:1
    Frame rate mode             : Constant
    Frame rate                  : 23.976 (24000/1001) FPS
    Color space                 : YUV
    Chroma subsampling          : 4:2:0 (Type 2)
    Bit depth                   : 10 bits
    Bits/(Pixel*Frame)          : 0.128
    Stream size                 : 18.8 GiB (95%)
    Title                       : Web 2160p HDR [CinemaniaHDD]
    Default                     : Yes
    Forced                      : No
    Color range                 : Limited
    Color primaries             : BT.2020
    Transfer characteristics    : PQ
    Matrix coefficients         : BT.2020 non-constant
    Mastering display color pri : BT.2020
    Mastering display luminance : min: 0.0050 cd/m2, max: 1000 cd/m2
    Maximum Content Light Level : 1643 cd/m2
    Maximum Frame-Average Light : 942 cd/m2

    Audio #1
    ID                          : 2
    Format                      : AC-3
    Format/Info                 : Audio Coding 3
    Commercial name             : Dolby Digital
    Codec ID                    : A_AC3
    Duration                    : 1 h 49 min
    Bit rate mode               : Constant
    Bit rate                    : 384 kb/s
    Channel(s)                  : 6 channels
    Channel layout              : L R C LFE Ls Rs
    Sampling rate               : 48.0 kHz
    Frame rate                  : 31.250 FPS (1536 SPF)
    Compression mode            : Lossy
    Stream size                 : 302 MiB (1%)
    Title                       : Español Latino [CinemaniaHDD]
    Language                    : Spanish
    Service kind                : Complete Main
    Default                     : Yes
    Forced                      : Yes

    Audio #2
    ID                          : 3
    Format                      : E-AC-3 JOC
    Format/Info                 : Enhanced AC-3 with Joint Object Coding
    Commercial name             : Dolby Digital Plus with Dolby Atmos
    Codec ID                    : A_EAC3
    Duration                    : 1 h 49 min
    Bit rate mode               : Constant
    Bit rate                    : 768 kb/s
    Channel(s)                  : 6 channels
    Channel layout              : L R C LFE Ls Rs
    Sampling rate               : 48.0 kHz
    Frame rate                  : 31.250 FPS (1536 SPF)
    Compression mode            : Lossy
    Stream size                 : 603 MiB (3%)
    Title                       : Ingles [CinemaniaHDD]
    Language                    : English
    Service kind                : Complete Main
    Default                     : No
    Forced                      : No
    Complexity index            : 16
    Number of dynamic objects   : 15
    Bed channel count           : 1 channel
    Bed channel configuration   : LFE

    Text #1
    ID                          : 4
    Format                      : UTF-8
    Codec ID                    : S_TEXT/UTF8
    Codec ID/Info               : UTF-8 Plain Text
    Duration                    : 1 h 42 min
    Bit rate                    : 17 b/s
    Count of elements           : 507
    Stream size                 : 13.4 KiB (0%)
    Title                       : Forzados-SRT [CinemaniaHDD]
    Language                    : Spanish
    Default                     : Yes
    Forced                      : Yes

    Text #2
    ID                          : 5
    Format                      : UTF-8
    Codec ID                    : S_TEXT/UTF8
    Codec ID/Info               : UTF-8 Plain Text
    Duration                    : 1 h 48 min
    Bit rate                    : 46 b/s
    Count of elements           : 1449
    Stream size                 : 36.6 KiB (0%)
    Title                       : Español-SRT [CinemaniaHDD]
    Language                    : Spanish
    Default                     : No
    Forced                      : No

    Text #3
    ID                          : 6
    Format                      : UTF-8
    Codec ID                    : S_TEXT/UTF8
    Codec ID/Info               : UTF-8 Plain Text
    Duration                    : 1 h 44 min
    Bit rate                    : 81 b/s
    Count of elements           : 2073
    Stream size                 : 62.2 KiB (0%)
    Title                       : Ingles-SRT [CinemaniaHDD]
    Language                    : English
    Default                     : No
    Forced                      : No

    Menu
    00:00:00.000                : Chapter 01
    00:07:21.733                : Chapter 02
    00:13:17.922                : Chapter 03
    00:18:33.113                : Chapter 04
    00:25:16.850                : Chapter 05
    00:30:54.979                : Chapter 06
    00:37:15.318                : Chapter 07
    00:43:31.111                : Chapter 08
    00:52:19.139                : Chapter 09
    01:02:30.000                : Chapter 10
    01:10:30.980                : Chapter 11
    01:17:43.038                : Chapter 12
    01:25:00.517                : Chapter 13
    01:30:06.906                : Chapter 14
    01:35:43.368                : Chapter 15
    01:41:23.208                : Chapter 16

  • Peso: 19.7 GiB

Sinopsis

Descargar Sing 2: ¡Ven y canta de nuevo! (2021) WEB-DL 4K UHD HDR Latino. Buster Moon y sus amigos deben persuadir a la estrella del rock Clay Calloway para que se una a ellos en el estreno de un nuevo espectáculo.

Ficha técnica

Video trailer de la película

Enlaces de descarga

Rip de Bluray

Descargar Sing 2: ¡Ven y canta de nuevo! (2021) WEB-DL 4K UHD HDR Latino




Aportes de DPeliculasHDmega la pass es:dpeliculashdmega.org Aportes de CinemaniaHD la pass es:cinemaniahdd.com
Guardado en : 4K HDR , 4K UHD , Animación , Comedia , Familia , Música

Películas relacionadas

Sing 2: ¡Ven y canta de nuevo! (2021) WEB-DL 4K UHD HDR Latino pelicula full hd, Sing 2: ¡Ven y canta de nuevo! (2021) WEB-DL 4K UHD HDR Latino mega latino, Sing 2: ¡Ven y canta de nuevo! (2021) WEB-DL 4K UHD HDR Latino 4k latino, Sing 2: ¡Ven y canta de nuevo! (2021) WEB-DL 4K UHD HDR Latino pelicula completa, Sing 2: ¡Ven y canta de nuevo! (2021) WEB-DL 4K UHD HDR Latino descargar gratis, descargar Sing 2: ¡Ven y canta de nuevo! (2021) WEB-DL 4K UHD HDR Latino pelicula latino, Sing 2: ¡Ven y canta de nuevo! (2021) WEB-DL 4K UHD HDR Latino 1 link mega, Sing 2: ¡Ven y canta de nuevo! (2021) WEB-DL 4K UHD HDR Latino 1 link google drive, Sing 2: ¡Ven y canta de nuevo! (2021) WEB-DL 4K UHD HDR Latino hd 1080p latino.
Comentarios 0